<?xml version="1.0" standalone="no"?>
<!DOCTYPE svg PUBLIC "-//W3C//DTD SVG 1.1//EN" "http://www.w3.org/Graphics/SVG/1.1/DTD/svg11.dtd" >
<svg xmlns="http://www.w3.org/2000/svg">
<metadata>Generated by IcoMoon</metadata>
<defs>
<font id="icomoon" horiz-adv-x="1024">
<font-face units-per-em="1024" ascent="960" descent="-64" />
<missing-glyph horiz-adv-x="1024" />
<glyph unicode="&#x20;" horiz-adv-x="512" d="" />
<glyph unicode="&#xe900;" glyph-name="action-activity" d="M341.333 866.111c-136.268 0-247.444-111.177-247.444-247.444v-341.333c0-136.269 111.177-247.444 247.444-247.444h341.333c136.269 0 247.444 111.175 247.444 247.444v341.333c0 136.268-111.175 247.444-247.444 247.444zM341.333 797.889h341.333c99.376 0 179.222-79.848 179.222-179.222v-341.333c0-99.376-79.846-179.222-179.222-179.222h-341.333c-99.374 0-179.222 79.846-179.222 179.222v341.333c0 99.374 79.848 179.222 179.222 179.222zM682.667 546.111c-9.417-0.008-17.94-3.828-24.111-10l-108.222-108.222-104.778 69.889c-5.303 3.557-11.829 5.677-18.85 5.677-9.432 0-17.971-3.825-24.149-10.010v0l-85.333-85.333c-6.162-6.174-9.973-14.698-9.973-24.111s3.811-17.937 9.973-24.112l-0.001 0.001c6.174-6.162 14.698-9.973 24.111-9.973s17.937 3.811 24.112 9.973l65.555 65.555 104.778-69.889c5.317-3.584 11.868-5.721 18.917-5.721 9.454 0 18.011 3.843 24.193 10.053l127.89 128.001c6.162 6.174 9.973 14.698 9.973 24.111s-3.811 17.937-9.973 24.112l0.001-0.001c-6.171 6.172-14.694 9.992-24.11 10h-0.002z" />
<glyph unicode="&#xe901;" glyph-name="person-add" d="M488.4 327.1c-121.392 0-220.5-99.011-220.5-220.4 0.011-16.958 13.761-30.7 30.72-30.7 0.028 0 0.056 0 0.084 0h-0.004c16.951 0.011 30.689 13.749 30.7 30.699v0.001c0 88.183 70.813 159 159 159h217.9c88.189 0 159-70.816 159-159 0.011-16.951 13.749-30.689 30.699-30.7h0.001c16.951 0.011 30.689 13.749 30.7 30.699v0.001c0 121.388-99.006 220.4-220.4 220.4zM597.3 819.9c-53.788 0-107.539-20.439-148.4-61.3-81.721-81.722-81.721-215.178 0-296.9 81.723-81.72 215.18-81.721 296.9 0s81.72 215.179 0 296.9c-40.86 40.861-94.712 61.3-148.5 61.3zM597.3 758.8c37.935 0 75.88-14.579 105-43.7 58.241-58.242 58.241-151.758 0-210s-151.757-58.241-210 0c-58.242 58.243-58.242 151.757 0 210 29.122 29.121 67.065 43.7 105 43.7zM106.7 478.7c-0.024 0-0.052 0-0.080 0-16.959 0-30.709-13.742-30.72-30.699v-0.001c0.011-16.958 13.761-30.7 30.72-30.7 0.028 0 0.056 0 0.084 0h170.596c0.024 0 0.052 0 0.080 0 16.959 0 30.709 13.742 30.72 30.699v0.001c-0.011 16.958-13.761 30.7-30.72 30.7-0.028 0-0.056 0-0.084 0h0.004zM192 564.1c-16.958-0.011-30.7-13.761-30.7-30.72 0-0.028 0-0.056 0-0.084v0.004-170.6c0.011-16.951 13.749-30.689 30.699-30.7h0.001c16.951 0.011 30.689 13.749 30.7 30.699v170.601c0 0.024 0 0.052 0 0.080 0 16.959-13.742 30.709-30.699 30.72h-0.001z" />
<glyph unicode="&#xe902;" glyph-name="phone-add" d="M255 804.111c-30.642 0-61.374-11.596-84.556-34.778l-27.778-27.778c-39.868-39.868-56.163-97.259-45.667-152.889 0-0.016 0-0.036 0-0.055s0-0.039 0-0.058v0.003c22.604-119.561 90.875-246.878 199.778-355.778 108.903-108.906 236.214-177.174 355.778-199.778 55.631-10.496 113.132 5.805 153 45.667l27.778 27.778c46.369 46.361 46.366 122.634 0 169l-50.111 50c-38.045 38.045-100.762 38.077-138.778 0l-37.444-37.445c-52.174 23.294-104.171 57.986-150.667 104.444-46.491 46.49-81.086 98.394-104.333 150.556l33.889 33.889c40.008 40.008 41.587 104.302 3.556 142.333l-50 50.111c-23.182 23.182-53.802 34.778-84.444 34.778zM255 736.222c13.027 0 25.97-5.082 36.111-15.222l50.111-50c11.974-11.974 13.584-28.638-3.667-45.889l-34.889-34.889c-18.787-18.787-25.357-47.674-14.222-73.111 0-0.016 0-0.036 0-0.055s0-0.039 0-0.058v0.003c26.763-60.696 66.803-120.027 119.667-172.889 52.86-52.818 112.203-92.86 172.889-119.667 25.521-11.259 54.476-4.623 73.222 14.111 0 0.017 0 0.037 0 0.057s0 0.040 0 0.060v-0.003l38.556 38.556c11.91 11.929 30.262 11.96 42.222 0l50-50.111c20.285-20.285 20.282-52.055 0-72.333l-27.778-27.778c-23.369-23.365-57.177-33.459-92-26.889-103.418 19.548-220.144 80.805-320.222 180.886-100.048 100.045-161.318 216.83-180.889 320.222v0.111c-6.526 34.783 3.439 68.551 26.778 91.889l27.889 27.778c10.141 10.141 23.195 15.222 36.222 15.222zM640 738.111c-18.834-0.013-34.098-15.277-34.111-34.11v-0.001c0.013-18.834 15.277-34.098 34.11-34.111h256.001c18.834 0.013 34.098 15.277 34.111 34.11v0.001c-0.013 18.834-15.277 34.098-34.11 34.111h-0.001zM768 866.111c-18.834-0.013-34.098-15.277-34.111-34.11v-256.001c0.013-18.834 15.277-34.098 34.11-34.111h0.001c18.834 0.013 34.098 15.277 34.111 34.11v256.001c-0.013 18.834-15.277 34.098-34.11 34.111h-0.001z" />
<glyph unicode="&#xe903;" glyph-name="action-check-outline" d="M512 862.7c-54.461 0-108.384-10.659-158.7-31.5s-96.090-51.39-134.6-89.9c-38.51-38.51-69.058-84.284-89.9-134.6s-31.5-104.239-31.5-158.7c0-54.461 10.658-108.386 31.5-158.7 20.841-50.319 51.389-96.092 89.9-134.6 38.509-38.507 84.283-69.059 134.6-89.9 50.316-20.841 104.239-31.5 158.7-31.5s108.386 10.659 158.7 31.5c50.32 20.841 96.092 51.392 134.6 89.9s69.059 84.28 89.9 134.6c20.841 50.314 31.5 104.239 31.5 158.7s-10.659 108.384-31.5 158.7c-20.841 50.317-51.393 96.091-89.9 134.6-38.508 38.511-84.281 69.059-134.6 89.9-50.314 20.842-104.239 31.5-158.7 31.5zM512 801.3c46.393 0 92.341-9.146 135.2-26.9 42.865-17.754 81.797-43.795 114.6-76.6s58.847-71.739 76.6-114.6c17.754-42.863 26.9-88.807 26.9-135.2s-9.147-92.34-26.9-135.2c-17.753-42.864-43.796-81.796-76.6-114.6s-71.736-58.847-114.6-76.6c-42.86-17.753-88.807-26.9-135.2-26.9s-92.337 9.146-135.2 26.9c-42.861 17.753-81.794 43.796-114.6 76.6s-58.846 71.735-76.6 114.6c-17.754 42.859-26.9 88.807-26.9 135.2s9.146 92.337 26.9 135.2c17.754 42.862 43.795 81.795 76.6 114.6s71.738 58.846 114.6 76.6c42.863 17.754 88.806 26.9 135.2 26.9zM659.9 581.3c-8.475-0.007-16.146-3.445-21.7-9v0l-186.5-186.9-69.9 69.9c-5.557 5.546-13.228 8.975-21.7 8.975s-16.143-3.429-21.7-8.976v0c-5.576-5.562-9.025-13.253-9.025-21.75s3.45-16.188 9.025-21.749l92.401-92.401c5.561-5.568 13.248-9.013 21.739-9.013 16.968 0 30.724 13.756 30.724 30.724 0 8.466-3.424 16.133-8.964 21.69l0.001-0.001 20.8-20.9 186.6 187c5.516 5.552 8.926 13.203 8.926 21.65 0 8.497-3.45 16.188-9.025 21.75l-0.001 0.001c-5.554 5.555-13.225 8.993-21.699 9h-0.001z" />
<glyph unicode="&#xe904;" glyph-name="arrow-down" d="M173.25 685.25l-90.5-90.5 429.25-429.25 429.25 429.25-90.5 90.5-338.75-338.75z" />
<glyph unicode="&#xe905;" glyph-name="money-in" d="M511.111 872.222c-174.4 0-317.154-142.84-316.667-317.667 0.061-174.275 142.383-317 317.111-317 174.4 0 317.222 142.711 317.222 317.111 0 169.055-134.579 305.411-301.222 313.889-0.037 0.002-0.074-0.002-0.111 0-0.075 0.075-0.147 0.148-0.22 0.22l-0.003 0.002c-0.016 0-0.036 0-0.055 0s-0.039 0-0.058 0h0.003c-4.704 2.149-10.201 3.414-15.989 3.444h-0.011zM511.111 792.556c0.016 0 0.036 0 0.055 0s0.039 0 0.058 0h-0.003c0.112-0.113 0.22-0.222 0.33-0.33l0.004-0.004h0.445c130.876 0.181 237.111-106.090 237.111-237.556 0-131.093-106.462-237.556-237.556-237.556-131.58 0-237.444 106.389-237.444 237.556 0 0.016 0 0.036 0 0.055s0 0.039 0 0.058v-0.003c-0.366 131.52 105.907 237.778 237 237.778zM298.667 317.111c-21.958-0.025-39.753-17.819-39.778-39.775v-0.002c0.025-21.958 17.819-39.753 39.775-39.778h426.669c21.958 0.025 39.753 17.819 39.778 39.775v0.002c-0.025 21.958-17.819 39.753-39.775 39.778h-0.002zM211.667 489.111c-68.655 0-125.4-56.811-124.778-125.889v-213c0-68.646 56.326-124.939 124.778-125.556l-2.333 0.114c0.881-0.105 1.958-0.184 3.046-0.22l0.065-0.002h597.333c68.655 0 125.222 56.568 125.222 125.222v213.333c0 67.67-55.491 122.673-123 123.667-0.394 0.246-0.975 0.578-1.566 0.896l-0.212 0.104h-42.222c-21.96-0.025-39.754-17.821-39.778-39.779v-0.002c0.025-21.958 17.819-39.753 39.775-39.778h42.224c25.017 0.228 45.111-19.902 45.111-45.111v-213.333c0-25.212-20.343-45.556-45.556-45.556h-595.444c-0.501 0.046-1.157 0.087-1.816 0.112l-0.073 0.002c-26.268 0.234-45.889 19.813-45.889 45.886v213.333c0 0.050 0 0.109 0 0.168s0 0.118 0 0.177v-0.009c-0.231 25.643 19.899 45.664 45.111 45.664h42.222c21.958 0.025 39.753 17.819 39.778 39.775v0.002c-0.025 21.958-17.819 39.752-39.775 39.778h-0.002zM426.667 573.111c-10.98-0.014-20.916-4.47-28.111-11.667v0c-7.178-7.202-11.616-17.138-11.616-28.111s4.438-20.909 11.617-28.112l85.332-85.332c7.202-7.177 17.138-11.615 28.111-11.615s20.909 4.437 28.112 11.616l85.332 85.332c7.178 7.202 11.616 17.138 11.616 28.111s-4.438 20.909-11.617 28.112l0.001-0.001c-7.202 7.178-17.138 11.616-28.111 11.616s-20.909-4.438-28.112-11.617l-57.221-57.221-57.222 57.222c-7.195 7.197-17.131 11.652-28.108 11.667h-0.003zM512 701.111c-21.958-0.025-39.752-17.819-39.778-39.775v-213.335c0.025-21.958 17.819-39.753 39.775-39.778h0.002c21.958 0.025 39.753 17.819 39.778 39.775v213.335c-0.025 21.958-17.819 39.753-39.775 39.778h-0.002z" />
<glyph unicode="&#xe906;" glyph-name="action-plus-outline" d="M227.556 960c-125.574 0-227.556-101.982-227.556-227.556v-568.889c0-125.574 101.982-227.556 227.556-227.556h568.889c125.574 0 227.556 101.982 227.556 227.556v568.889c0 125.574-101.982 227.556-227.556 227.556zM227.556 903.111h568.889c95.041 0 170.667-75.625 170.667-170.667v-568.889c0-95.041-75.625-170.667-170.667-170.667h-568.889c-95.041 0-170.667 75.625-170.667 170.667v568.889c0 95.041 75.625 170.667 170.667 170.667zM512 715.333c-21.958-0.025-39.752-17.819-39.778-39.775v-455.113c0.025-21.958 17.819-39.753 39.775-39.778h0.002c21.958 0.025 39.753 17.819 39.778 39.775v455.113c-0.025 21.958-17.819 39.753-39.775 39.778h-0.002zM284.444 487.778c-21.958-0.025-39.753-17.819-39.778-39.775v-0.002c0.025-21.958 17.819-39.753 39.775-39.778h455.114c21.958 0.025 39.753 17.819 39.778 39.775v0.002c-0.025 21.958-17.819 39.752-39.775 39.778h-0.002z" />
<glyph unicode="&#xe907;" glyph-name="phone-block" d="M810.667 792.778c-9.417-0.008-17.94-3.828-24.111-10l-640-640.444c-6.195-6.18-10.028-14.726-10.028-24.167s3.833-17.987 10.028-24.166l0.001-0.001c6.169-6.128 14.669-9.916 24.054-9.916 9.442 0 17.988 3.834 24.167 10.029l640.001 640.332c6.195 6.18 10.028 14.726 10.028 24.167s-3.833 17.987-10.028 24.166l-0.001 0.001c-6.171 6.172-14.694 9.992-24.11 10h-0.002zM756.556 384.889c-25.19-0.001-50.436-9.517-69.444-28.556l-37.556-37.556c-25.16 11.235-50.333 25.163-74.889 41.889-5.383 3.712-12.045 5.93-19.226 5.93-11.68 0-21.99-5.867-28.144-14.814l-0.075-0.115c-3.712-5.383-5.93-12.045-5.93-19.226 0-11.68 5.867-21.99 14.814-28.144l0.115-0.075c28.391-19.338 57.705-35.761 87.444-48.889 25.512-11.255 54.472-4.528 73.222 14.222l38.556 38.556c11.91 11.929 30.262 11.96 42.222 0l50-50c20.309-20.333 20.282-52.166 0-72.444l-27.778-27.778c-23.343-23.339-57.107-33.415-91.889-26.889-78.38 14.839-164.566 53.643-245.222 115.222-5.69 4.402-12.926 7.056-20.782 7.056-11.012 0-20.806-5.215-27.048-13.31l-0.059-0.080c-4.377-5.68-7.015-12.896-7.015-20.729 0-11.043 5.244-20.861 13.378-27.1l0.081-0.060c88.218-67.353 183.218-110.945 273.889-128.111 55.631-10.496 113.132 5.805 153 45.667l27.778 27.778c46.369 46.361 46.342 122.602 0 169l-50.111 50c-19.023 19.023-44.144 28.556-69.333 28.556zM297.667 835c-30.642 0-61.374-11.596-84.556-34.778l-27.778-27.778c-39.868-39.868-56.163-97.259-45.667-152.889 0-0.016 0-0.036 0-0.055s0-0.039 0-0.058v0.003c21.75-115.117 86.16-237.135 187.889-343.222 6.221-6.466 14.947-10.483 24.612-10.483 9.167 0 17.49 3.614 23.622 9.494l-0.012-0.011c6.499 6.225 10.539 14.973 10.539 24.665 0 9.195-3.636 17.541-9.549 23.679l0.010-0.011c-93.484 97.49-151.198 209.169-170 308.556v0.111c-6.526 34.783 3.439 68.551 26.778 91.889l27.889 27.889c20.281 20.281 52.052 20.281 72.333 0l50.111-50.111c11.974-11.974 13.584-28.638-3.667-45.889l-34.889-34.889c-18.787-18.787-25.403-47.66-14.222-73.111 0-0.016 0-0.036 0-0.055s0-0.039 0-0.058v0.003c24.705-56.010 61.151-110.466 107.778-159.889 6.234-6.57 15.029-10.658 24.779-10.658 9.086 0 17.343 3.55 23.459 9.339l-0.016-0.015c6.605 6.238 10.716 15.056 10.716 24.834 0 9.059-3.529 17.294-9.288 23.405l0.016-0.017c-41.139 43.606-72.599 91.278-93.889 139l33.889 33.889c40.008 40.008 41.587 104.302 3.556 142.333l-50 50.111c-23.182 23.182-53.802 34.778-84.444 34.778z" />
<glyph unicode="&#xe908;" glyph-name="arrow-left-2" d="M624.553 645.753c-14.996 14.996-39.311 14.996-54.308 0l-170.664-170.666c-14.996-14.996-14.996-39.308 0-54.304l170.664-170.67c14.996-14.996 39.311-14.996 54.308 0s14.996 39.311 0 54.308l-143.514 143.514 143.514 143.514c14.996 14.996 14.996 39.31 0 54.306z" />
<glyph unicode="&#xe909;" glyph-name="action-change" d="M746.667 807.778c-33.18 0-65.096-13.206-88.556-36.667l-218.111-218.111c-22.409-22.41-36.964-51.517-41.444-82.889l-11.111-77.444c-1.343-9.399-0.453-18.98 2.556-28 3.005-9.027 8.096-17.202 14.778-23.889 6.72-6.727 14.884-11.778 23.889-14.778 9.002-2.999 18.615-3.891 28-2.555l77.444 11.111c31.364 4.483 60.477 19.031 82.889 41.444l218.111 218.222c11.622 11.621 20.932 25.372 27.222 40.556 6.292 15.186 9.444 31.454 9.444 47.889s-3.153 32.703-9.444 47.889c-6.291 15.184-15.601 28.935-27.222 40.556-23.459 23.46-55.268 36.667-88.444 36.667zM746.667 728.222c12.084 0 23.676-4.787 32.222-13.333 4.228-4.228 7.49-9.255 9.778-14.778 2.287-5.52 3.556-11.468 3.556-17.444s-1.269-11.925-3.556-17.444c-2.289-5.523-5.551-10.551-9.778-14.778l-218.222-218.222c-10.231-10.231-23.558-16.841-37.889-18.889l-53-7.556 7.556 53c2.046 14.325 8.658 27.658 18.889 37.889l218.222 218.222c8.546 8.547 20.13 13.333 32.222 13.333zM559.222 869.111c-87.615 10.040-176.2-7.452-253.444-50s-139.439-108.137-177.778-187.556c-38.339-79.419-50.953-168.827-36.222-255.778 14.731-86.945 56.086-167.085 118.444-229.444s142.607-103.824 229.556-118.556c86.95-14.732 176.359-2.004 255.778 36.333s145.006 100.42 187.556 177.667c42.551 77.243 59.925 165.832 49.889 253.444-2.372 19.937-19.177 35.248-39.559 35.248-1.565 0-3.109-0.090-4.626-0.266l0.185 0.017c-19.994-2.315-35.371-19.148-35.371-39.573 0-1.599 0.094-3.176 0.278-4.726l-0.018 0.188c8.157-71.206-5.977-143.117-40.556-205.889-34.581-62.78-87.901-113.287-152.444-144.444-64.545-31.158-137.115-41.417-207.778-29.444-70.664 11.972-135.877 45.543-186.556 96.222s-84.25 115.896-96.222 186.556c-11.972 70.666-1.713 143.346 29.444 207.889s81.668 117.754 144.444 152.333c62.777 34.579 134.685 48.715 205.889 40.556 1.362-0.165 2.939-0.259 4.539-0.259 20.425 0 37.258 15.377 39.555 35.185l0.017 0.185c0.166 1.366 0.261 2.947 0.261 4.551 0 20.386-15.318 37.194-35.073 39.542l-0.188 0.018z" />
<glyph unicode="&#xe90a;" d="M512 960c282.77 0 512-229.23 512-512s-229.23-512-512-512c-282.77 0-512 229.23-512 512s229.23 512 512 512z" />
<glyph unicode="&#xe90b;" d="M340.139 446.555c0 6.61 2.916 13.224 7.583 17.889l127.36 127.167c5.447 5.444 11.474 7.973 17.502 7.973 14 0 23.723-9.916 23.723-23.14 0-7-2.918-12.831-7.39-17.306l-43.361-43.944-51.334-46.862 44.14 2.529h229.248c14.78 0 24.695-9.916 24.695-24.306 0-14.387-9.916-24.306-24.695-24.306h-229.248l-44.14 2.529 51.334-46.862 43.361-43.944c4.471-4.278 7.39-10.112 7.39-17.306 0-13.028-9.722-22.943-23.723-22.943-6.027 0-12.055 2.332-17.112 7.387l-127.75 127.556c-4.668 4.668-7.583 11.278-7.583 17.889z" />
<glyph unicode="&#xe90c;" glyph-name="calendar" d="M320 877.556c-0.013 0-0.029 0-0.044 0-25.135 0-45.511-20.376-45.511-45.511 0-0.016 0-0.031 0-0.047v0.002-128c0-0.013 0-0.029 0-0.044 0-25.135 20.376-45.511 45.511-45.511 0.016 0 0.031 0 0.047 0h-0.002c0.013 0 0.029 0 0.044 0 25.135 0 45.511 20.376 45.511 45.511 0 0.016 0 0.031 0 0.047v-0.002 128c0 0.013 0 0.029 0 0.044 0 25.135-20.376 45.511-45.511 45.511-0.016 0-0.031 0-0.047 0h0.002zM704 877.556c-0.013 0-0.029 0-0.044 0-25.135 0-45.511-20.376-45.511-45.511 0-0.016 0-0.031 0-0.047v0.002-128c0-0.013 0-0.029 0-0.044 0-25.135 20.376-45.511 45.511-45.511 0.016 0 0.031 0 0.047 0h-0.002c0.013 0 0.029 0 0.044 0 25.135 0 45.511 20.376 45.511 45.511 0 0.016 0 0.031 0 0.047v-0.002 128c0 0.013 0 0.029 0 0.044 0 25.135-20.376 45.511-45.511 45.511-0.016 0-0.031 0-0.047 0h0.002zM128 578.889c-0.013 0-0.029 0-0.044 0-25.135 0-45.511-20.376-45.511-45.511 0-0.016 0-0.031 0-0.047v0.002c0-0.013 0-0.029 0-0.044 0-25.135 20.376-45.511 45.511-45.511 0.016 0 0.031 0 0.047 0h767.998c0.013 0 0.029 0 0.044 0 25.135 0 45.511 20.376 45.511 45.511 0 0.016 0 0.031 0 0.047v-0.002c0 0.013 0 0.029 0 0.044 0 25.135-20.376 45.511-45.511 45.511-0.016 0-0.031 0-0.047 0h0.002zM256 813.556c-95.288 0-173.556-78.267-173.556-173.556v-448c0-95.287 78.266-173.556 173.556-173.556h512c95.288 0 173.556 78.268 173.556 173.556v448c0 95.289-78.269 173.556-173.556 173.556zM256 722.444h512c46.093 0 82.444-36.349 82.444-82.444v-448c0-46.092-36.352-82.444-82.444-82.444h-512c-46.095 0-82.444 36.351-82.444 82.444v448c0 46.096 36.348 82.444 82.444 82.444z" />
<glyph unicode="&#xe90d;" glyph-name="phone-outline" d="M512 906.5c-117.45 0-234.949-44.699-324.375-134.125-178.853-178.851-178.853-469.897 0-648.75 178.85-178.853 469.897-178.853 648.75 0s178.853 469.897 0 648.75c-89.426 89.426-206.925 134.125-324.375 134.125zM512 842.875c100.937 0 201.927-38.553 279.125-115.75 154.395-154.395 154.395-403.855 0-558.25s-403.732-154.395-558.125 0c-154.395 154.395-154.395 403.857 0 558.25 77.197 77.197 178.063 115.75 279 115.75zM389.875 692.625c-23.66 2.050-48.147-5.772-66.25-23.875l-17-17c-0.019 0-0.040 0-0.062 0s-0.044 0-0.066 0h0.003c-44.44-44.658-47.46-108.548-27.25-165.375 20.191-56.776 60.996-112.175 109.875-161.125 0.044-0.044 0.081-0.081 0.125-0.125 48.913-48.909 104.335-89.671 161.125-109.875 56.84-20.222 120.716-17.22 165.375 27.25 0 0.019 0 0.041 0 0.064s0 0.045 0 0.068v-0.004l17 17c36.265 36.19 31.099 98.061-11.125 127.372-16.603 11.568-34.366 23.938-54 37.75-32.504 22.851-76.884 19.141-105.625-8.25-15.154 11.259-30.47 22.247-44.875 36.625h-0.125c-14.326 14.326-25.255 29.617-36.5 44.75 27.537 28.758 31.012 73.147 8.25 105.625 0 0.019 0 0.040 0 0.062s0 0.044 0 0.066v-0.003c-13.839 19.613-26.248 37.429-37.75 54-14.664 21.091-37.465 32.95-61.125 35zM368.875 623.5c9.105 9.105 22.345 7.97 29.625-2.5 11.523-16.602 24.042-34.469 38-54.25h-0.125c5.519-7.875 4.712-18.381-1.875-25-0.042-0.042-0.083-0.083-0.123-0.123l-0.001-0.001-19-19.25c-5.75-5.784-9.304-13.757-9.304-22.56 0-6.328 1.837-12.228 5.006-17.194l-0.077 0.129c16.622-26.248 37.406-51.531 60.75-74.875l0.125-0.125c23.357-23.312 48.613-44.119 74.875-60.75 4.837-3.093 10.737-4.929 17.065-4.929 8.803 0 16.776 3.554 22.562 9.306l-0.002-0.002 19.25 19c6.723 6.658 17.282 7.514 25.125 2 19.79-13.922 37.663-26.318 54.25-37.875 0.019 0 0.041 0 0.064 0s0.045 0 0.068 0h-0.004c10.513-7.298 11.512-20.506 2.375-29.625l-17-17c-25.527-25.418-55.75-27.673-98.75-12.375-42.958 15.282-93.090 50.723-137.253 94.875-0.046 0.046-0.079 0.079-0.125 0.125-44.14 44.211-79.477 94.303-94.75 137.25-15.289 42.992-13.155 73.221 12.25 98.75z" />
<glyph unicode="&#xe90e;" glyph-name="details-change-log" d="M256 606.7c-87.295 0-158.7-71.405-158.7-158.7v-256c0-87.294 71.405-158.7 158.7-158.7h512c87.294 0 158.7 71.406 158.7 158.7v256c0 87.295-71.406 158.7-158.7 158.7zM256 545.3h512c54.089 0 97.3-43.21 97.3-97.3v-256c0-54.089-43.211-97.3-97.3-97.3h-512c-54.090 0-97.3 43.211-97.3 97.3v256c0 54.090 43.21 97.3 97.3 97.3zM256 734.7c-16.951-0.011-30.689-13.749-30.7-30.699v-0.001c0.011-16.951 13.749-30.689 30.699-30.7h512.001c16.951 0.011 30.689 13.749 30.7 30.699v0.001c-0.011 16.951-13.749 30.689-30.699 30.7h-0.001zM384 862.7c-16.951-0.011-30.689-13.749-30.7-30.699v-0.001c0.011-16.951 13.749-30.689 30.699-30.7h256.001c16.951 0.011 30.689 13.749 30.7 30.699v0.001c-0.011 16.951-13.749 30.689-30.699 30.7h-0.001zM341.3 436.1c-16.958-0.011-30.7-13.761-30.7-30.72 0-0.028 0-0.056 0-0.084v0.004-42.6c0-19.451 7.737-38.144 21.5-51.9 13.755-13.756 32.448-21.5 51.9-21.5h256c19.453 0 38.148 7.748 51.9 21.5 13.764 13.756 21.5 32.448 21.5 51.9v42.6c0 0.024 0 0.052 0 0.080 0 16.966-13.754 30.72-30.72 30.72-0.028 0-0.056 0-0.084 0h0.004c-16.958-0.011-30.7-13.761-30.7-30.72 0-0.028 0-0.056 0-0.084v0.004-42.6c0-3.179-1.259-6.261-3.5-8.5-2.253-2.253-5.212-3.5-8.4-3.5h-256c-3.18 0-6.252 1.251-8.5 3.5-2.24 2.239-3.5 5.32-3.5 8.5v42.6c0 0.024 0 0.052 0 0.080 0 16.959-13.742 30.709-30.699 30.72h-0.001z" />
<glyph unicode="&#xe90f;" glyph-name="phone-change" d="M255 804.111c-30.642 0-61.374-11.596-84.556-34.778l-27.778-27.778c-39.868-39.868-56.163-97.259-45.667-152.889 0-0.016 0-0.036 0-0.055s0-0.039 0-0.058v0.003c22.604-119.561 90.875-246.878 199.778-355.778 108.903-108.906 236.214-177.174 355.778-199.778 55.631-10.496 113.132 5.805 153 45.667l27.778 27.778c46.369 46.361 46.366 122.634 0 169l-50.111 50c-38.045 38.045-100.762 38.077-138.778 0l-37.444-37.445c-52.174 23.294-104.171 57.986-150.667 104.444-46.491 46.49-81.086 98.394-104.333 150.556l33.889 33.889c40.008 40.008 41.587 104.302 3.556 142.333l-50 50.111c-23.182 23.182-53.802 34.778-84.444 34.778zM255 736.222c13.027 0 25.97-5.082 36.111-15.222l50.111-50c11.974-11.974 13.584-28.638-3.667-45.889l-34.889-34.889c-18.787-18.787-25.357-47.674-14.222-73.111 0-0.016 0-0.036 0-0.055s0-0.039 0-0.058v0.003c26.763-60.696 66.803-120.027 119.667-172.889 52.86-52.818 112.203-92.86 172.889-119.667 25.521-11.259 54.476-4.623 73.222 14.111 0 0.017 0 0.037 0 0.057s0 0.040 0 0.060v-0.003l38.556 38.556c11.91 11.929 30.262 11.96 42.222 0l50-50.111c20.285-20.285 20.282-52.055 0-72.333l-27.778-27.778c-23.369-23.365-57.177-33.459-92-26.889-103.418 19.548-220.144 80.805-320.222 180.886-100.048 100.045-161.318 216.83-180.889 320.222v0.111c-6.526 34.783 3.439 68.551 26.778 91.889l27.889 27.778c10.141 10.141 23.195 15.222 36.222 15.222zM896.444 757.667c-9.398-0.321-17.786-4.394-23.761-10.76l-0.017-0.018-1.778-2-1.889 2c-6.246 6.673-15.108 10.831-24.942 10.831-9.061 0-17.298-3.531-23.409-9.291l0.017 0.016c-6.675-6.246-10.835-15.11-10.835-24.945 0-9.006 3.488-17.197 9.186-23.297l-0.018 0.020 26.889-28.667c6.247-6.674 15.11-10.832 24.944-10.832s18.698 4.159 24.927 10.813l0.018 0.019 26.778 28.667c5.68 6.080 9.168 14.271 9.168 23.277 0 9.835-4.16 18.699-10.816 24.927l-0.019 0.018c-6.089 5.723-14.311 9.24-23.354 9.24-0.384 0-0.766-0.006-1.146-0.019l0.055 0.001zM747.444 880.333c-33.277 0-64.334-10.43-89.778-27.778-9.019-6.234-14.854-16.519-14.854-28.167 0-7.203 2.231-13.884 6.039-19.391l-0.074 0.114c6.229-9.063 16.539-14.929 28.219-14.929 7.18 0 13.843 2.217 19.341 6.004l-0.115-0.075c14.822 10.106 32.105 16 51.222 16 51.048 0 91.667-40.618 91.667-91.667 0-6.029-0.585-12.010-1.778-18-0.415-1.997-0.653-4.292-0.653-6.642 0-16.479 11.678-30.231 27.21-33.431l0.221-0.038c1.997-0.415 4.292-0.653 6.642-0.653 16.479 0 30.231 11.678 33.431 27.21l0.038 0.221c1.993 10.005 3.222 20.511 3.222 31.333 0 87.934-72.068 159.889-160 159.889zM624.111 782.667c-9.807-0.001-18.647-4.137-24.872-10.76l-0.017-0.018-26.778-28.667c-5.712-6.087-9.22-14.3-9.22-23.333 0-9.807 4.135-18.647 10.758-24.873l0.018-0.017c6.087-5.711 14.3-9.22 23.333-9.22 9.807 0 18.647 4.136 24.873 10.758l1.906 2.018 1.889-2c6.242-6.64 15.083-10.776 24.89-10.776 9.033 0 17.246 3.508 23.351 9.237l-0.018-0.017c6.675 6.246 10.835 15.11 10.835 24.945 0 9.006-3.488 17.197-9.186 23.297l0.018-0.020-26.777 28.667c-6.243 6.641-15.085 10.778-24.893 10.778-0.037 0-0.075 0-0.112 0h0.006zM630.778 781.111c-1.997 0.415-4.292 0.653-6.642 0.653-16.479 0-30.231-11.678-33.431-27.21l-0.038-0.221c-1.99-9.99-3.111-20.495-3.111-31.333 0-87.934 71.957-159.889 159.889-159.889 33.25 0 64.316 10.388 89.778 27.778 9.019 6.234 14.854 16.519 14.854 28.167 0 7.203-2.231 13.884-6.039 19.391l0.074-0.114c-6.237 8.99-16.506 14.802-28.132 14.802-7.17 0-13.824-2.211-19.317-5.988l0.115 0.075c-14.736-10.064-32.189-15.889-51.333-15.889-51.048 0-91.667 40.618-91.667 91.667 0 6.014 0.693 11.995 1.889 18 0.412 1.991 0.648 4.278 0.648 6.621 0 16.517-11.732 30.295-27.318 33.453l-0.219 0.037z" />
<glyph unicode="&#xe910;" glyph-name="document-change" d="M298.667 866.111c-31.672 0-62.049-12.605-84.444-35s-35-52.773-35-84.444v-597.333c0-31.671 12.603-62.048 35-84.444s52.775-35 84.444-35h341.333c31.669 0 62.047 12.602 84.444 35s35 52.776 35 84.444v42.667c-0.013 18.834-15.277 34.098-34.11 34.111h-0.001c-18.834-0.013-34.098-15.277-34.111-34.11v-42.668c0-13.592-5.392-26.614-15-36.222s-22.63-15-36.222-15h-341.333c-13.594 0-26.613 5.391-36.222 15s-15 22.632-15 36.222v597.333c0 13.592 5.389 26.612 15 36.222s22.631 15 36.222 15h341.333c13.59 0 26.613-5.391 36.222-15s15-22.628 15-36.222c0.013-18.834 15.277-34.098 34.11-34.111h0.001c18.834 0.013 34.098 15.277 34.111 34.11v0.001c0 31.669-12.604 62.048-35 84.444s-52.774 35-84.444 35zM362.667 866.111c-18.834-0.013-34.098-15.277-34.111-34.11v-85.334c0-14.698 5.83-28.83 16.222-39.222s24.525-16.222 39.222-16.222h170.667c14.698 0 28.832 5.836 39.222 16.222 10.39 10.393 16.222 24.527 16.222 39.222v85.333c-0.013 18.834-15.277 34.098-34.11 34.111h-0.001c-18.834-0.013-34.098-15.277-34.111-34.11v-72.557h-145.111v72.556c-0.013 18.834-15.277 34.098-34.11 34.111h-0.001zM576 610.111c-18.834-0.013-34.098-15.277-34.111-34.11v-0.001c0.013-18.834 15.277-34.098 34.11-34.111h149.335c18.834 0.013 34.098 15.277 34.111 34.11v0.001c-0.013 18.834-15.277 34.098-34.11 34.111h-0.001zM789.333 674.111c-53.793 0-98.111-44.317-98.111-98.111s44.318-98.111 98.111-98.111c53.793 0 98.111 44.317 98.111 98.111s-44.318 98.111-98.111 98.111zM789.333 605.889c16.897 0 29.889-12.99 29.889-29.889s-12.991-29.889-29.889-29.889c-16.897 0-29.889 12.99-29.889 29.889s12.991 29.889 29.889 29.889zM704 396.778c-18.834-0.013-34.098-15.277-34.111-34.11v-0.001c0.013-18.834 15.277-34.098 34.11-34.111h149.335c18.834 0.013 34.098 15.277 34.111 34.11v0.001c-0.013 18.834-15.277 34.098-34.11 34.111h-0.001zM640 460.778c-53.793 0-98.111-44.317-98.111-98.111s44.318-98.111 98.111-98.111c53.793 0 98.111 44.318 98.111 98.111s-44.318 98.111-98.111 98.111zM640 392.556c16.897 0 29.889-12.99 29.889-29.889 0-16.897-12.992-29.889-29.889-29.889s-29.889 12.992-29.889 29.889c0 16.898 12.991 29.889 29.889 29.889z" />
<glyph unicode="&#xe911;" glyph-name="arrow-right-2" d="M399.547 645.753c14.996 14.996 39.31 14.996 54.306 0l170.664-170.666c14.996-14.996 14.996-39.308 0-54.304l-170.664-170.67c-14.996-14.996-39.309-14.996-54.306 0s-14.996 39.311 0 54.308l143.516 143.514-143.516 143.514c-14.996 14.996-14.996 39.31 0 54.306z" />
<glyph unicode="&#xe912;" glyph-name="money-check" d="M298.667 691.167c-16.468-0.021-29.813-13.365-29.833-29.831v-554.669c0.041-16.466 13.398-29.798 29.87-29.798 5.647 0 10.927 1.567 15.431 4.289l-0.134-0.075 55.75 33.417 55.75-33.417c4.388-2.676 9.697-4.261 15.375-4.261s10.987 1.585 15.507 4.336l-0.132-0.075 55.75 33.417 55.75-33.417c4.388-2.676 9.697-4.261 15.375-4.261s10.987 1.585 15.507 4.336l-0.132-0.075 55.75 33.417 55.75-33.417c4.37-2.648 9.651-4.214 15.297-4.214 16.471 0 29.829 13.332 29.87 29.794v554.671c-0.021 16.468-13.365 29.813-29.831 29.833h-0.002zM328.5 631.5h367v-472.167l-25.917 15.583c-4.388 2.676-9.697 4.261-15.375 4.261s-10.987-1.585-15.507-4.336l0.132 0.075-55.75-33.417-55.75 33.417c-4.378 2.661-9.672 4.236-15.333 4.236s-10.955-1.575-15.466-4.311l0.133 0.075-55.75-33.417-55.75 33.417c-4.388 2.676-9.697 4.261-15.375 4.261s-10.987-1.585-15.507-4.336l0.132 0.075-25.917-15.583zM426.667 307.167c-16.469-0.019-29.814-13.364-29.833-29.832v-0.002c0.019-16.469 13.364-29.814 29.832-29.833h170.668c16.469 0.019 29.814 13.364 29.833 29.832v0.002c-0.019 16.469-13.364 29.814-29.832 29.833h-0.002zM213.333 861.833c-0.74-0.004-1.466-0.034-2.185-0.090l0.102 0.006c-66.405-4.716-117.232-62.724-113.083-129.167v-142.583c-4.148-66.439 46.681-124.477 113.083-129.167 0.311-0.012 0.675-0.018 1.042-0.018s0.731 0.007 1.094 0.020l-0.053-0.002h85.333c16.469 0.019 29.814 13.364 29.833 29.832v0.002c-0.019 16.469-13.364 29.814-29.832 29.833h-83.252c-34.373 2.427-59.73 31.442-57.583 65.833 0.009 0.273 0.014 0.594 0.014 0.917s-0.005 0.644-0.015 0.963l0.001-0.047v146.333c0.009 0.273 0.014 0.594 0.014 0.917s-0.005 0.644-0.015 0.963l0.001-0.047c-2.144 34.336 23.136 63.292 57.417 65.833h593.5c34.28-2.541 59.561-31.498 57.417-65.833-0.009-0.273-0.014-0.594-0.014-0.917s0.005-0.644 0.015-0.963l-0.001 0.047v-146.333c-0.009-0.273-0.014-0.594-0.014-0.917s0.005-0.644 0.015-0.963l-0.001 0.047c2.144-34.335-23.136-63.291-57.417-65.833h-83.417c-16.469-0.019-29.814-13.364-29.833-29.832v-0.002c0.019-16.469 13.364-29.814 29.832-29.833h85.335c0.742 0.005 1.468 0.036 2.187 0.092l-0.103-0.007c66.404 4.717 117.233 62.723 113.083 129.167v142.498c4.149 66.443-46.679 124.451-113.083 129.167-0.617 0.049-1.343 0.079-2.075 0.083h-0.008zM586.667 520c-8.235-0.011-15.687-3.353-21.083-8.75v0l-65.083-65-20.75 20.667c-5.401 5.383-12.853 8.711-21.082 8.711-8.272 0-15.758-3.363-21.167-8.796l-0.001-0.001c-5.383-5.401-8.711-12.853-8.711-21.082 0-8.272 3.363-15.758 8.795-21.167l0.001-0.001 41.833-41.75c5.401-5.382 12.853-8.71 21.082-8.71 8.271 0 15.758 3.362 21.167 8.794l86.084 86.084c5.408 5.405 8.754 12.875 8.754 21.125s-3.345 15.72-8.754 21.125v0c-5.397 5.398-12.85 8.74-21.083 8.75h-0.002z" />
<glyph unicode="&#xe913;" glyph-name="action-copy" d="M213.333 733.833c-30.504 0-59.828-12.12-81.417-33.667-21.597-21.596-33.75-50.959-33.75-81.5v-469.333c0-30.54 12.071-59.82 33.667-81.417s50.959-33.75 81.5-33.75h384c30.54 0 59.82 12.153 81.417 33.75s33.75 50.877 33.75 81.417v42.667c-0.019 16.469-13.364 29.814-29.832 29.833h-0.002c-16.469-0.019-29.814-13.364-29.833-29.832v-42.669c0-14.721-5.838-28.838-16.25-39.25s-24.529-16.25-39.25-16.25h-384c-14.722 0-28.84 5.84-39.25 16.25-10.411 10.412-16.25 24.53-16.25 39.25v469.333c0 14.722 5.84 28.84 16.25 39.25s24.528 16.25 39.25 16.25h128c16.469 0.019 29.814 13.364 29.833 29.832v0.002c-0.019 16.469-13.364 29.814-29.832 29.833h-0.002zM448 861.833c-36.199 0-70.986-14.32-96.583-39.917s-39.917-60.384-39.917-96.583v-426.667c0-36.198 14.321-70.985 39.917-96.583 25.597-25.594 60.384-39.917 96.583-39.917h341.333c36.198 0 70.985 14.324 96.583 39.917 25.593 25.599 39.917 60.385 39.917 96.583v348.667c0 15.125-2.961 30.105-8.75 44.083-5.791 13.968-14.22 26.636-24.917 37.333-0.013 0-0.028 0-0.043 0s-0.030 0-0.045 0h0.002l-99.331 99.333c-10.698 10.699-23.355 19.211-37.333 25-13.977 5.791-28.957 8.75-44.083 8.75zM448 802.167h263.333c7.282 0 14.525-1.464 21.25-4.25 6.732-2.788 12.768-6.851 17.917-12 0.013 0 0.028 0 0.043 0s0.030 0 0.045 0h-0.002l99.333-99.417c5.127-5.14 9.215-11.284 12-18 2.766-6.706 4.25-13.908 4.25-21.167v-348.667c0-20.378-8.089-39.919-22.5-54.333-14.416-14.411-33.958-22.5-54.335-22.5h-341.333c-20.38 0-39.922 8.090-54.333 22.5-14.412 14.414-22.5 33.955-22.5 54.333v426.667c0 20.38 8.089 39.923 22.5 54.333s33.953 22.5 54.333 22.5zM682.667 861.833c-16.469-0.019-29.814-13.364-29.833-29.832v-149.335c0-24.882 9.82-48.737 27.417-66.333s41.533-27.5 66.417-27.5h149.333c16.469 0.019 29.814 13.364 29.833 29.832v0.002c-0.019 16.469-13.364 29.814-29.832 29.833h-149.335c-9.062 0-17.759 3.593-24.167 10s-10 15.101-10 24.167v149.333c-0.019 16.469-13.364 29.814-29.832 29.833h-0.002z" />
<glyph unicode="&#xe914;" glyph-name="action-check" d="M431.857-16.713c-37 0-66 12.5-90.5 40.997l-257.5 303.503c-22 24.999-29.5 46.5-29.5 72.5 0 57.5 43 99.999 102 99.999 33.499 0 57.999-11.5 78.999-36.5l194.5-232.5 387.5 608c24.503 38 50 52.5 89.498 52.5 58.5 0 103-42.5 103-99 0-21-6.495-43.5-21.994-66.5l-462.003-695.997c-21.5-32-53-47.002-94-47.002z" />
<glyph unicode="&#xe915;" glyph-name="arrow-chevron" d="M489.103 237.792c9.434-18.867 36.36-18.867 45.795 0l150.579 301.159c8.511 17.021-3.867 37.049-22.897 37.049h-301.157c-19.030 0-31.408-20.027-22.897-37.049l150.579-301.159z" />
<glyph unicode="&#xe916;" glyph-name="arrow-up-down" d="M570.616 842.765c-18.866 37.733-28.299 56.6-41.064 62.654-11.108 5.269-23.996 5.268-35.105 0-12.765-6.054-22.198-24.921-41.064-62.654l-98.76-197.521c-15.702-31.404-23.553-47.107-21.668-59.87 1.647-11.146 7.812-21.121 17.044-27.578 10.573-7.395 28.129-7.395 63.241-7.395h197.52c35.112 0 52.668 0 63.241 7.395 9.232 6.457 15.398 16.432 17.044 27.578 1.886 12.764-5.966 28.466-21.668 59.871l-98.762 197.52zM570.616 53.235c-18.866-37.733-28.299-56.6-41.064-62.654-11.108-5.268-23.996-5.268-35.105 0.001-12.765 6.054-22.198 24.92-41.064 62.653l-98.76 197.521c-15.702 31.404-23.553 47.107-21.668 59.87 1.647 11.146 7.812 21.121 17.044 27.578 10.573 7.395 28.129 7.395 63.241 7.395h197.52c35.112 0 52.668 0 63.241-7.395 9.232-6.457 15.398-16.432 17.044-27.578 1.886-12.764-5.966-28.466-21.668-59.871l-98.762-197.52z" />
<glyph unicode="&#xe917;" glyph-name="details-clock" d="M512 871.778c-112.389 0-220.195-44.64-299.667-124.111s-124.111-187.277-124.111-299.667c0-83.819 24.764-165.751 71.333-235.444 46.568-69.692 112.782-124.034 190.222-156.111s162.676-40.467 244.889-24.111c82.207 16.35 157.73 56.73 217 116s99.65 134.793 116 217c16.356 82.213 7.966 167.449-24.111 244.889s-86.419 143.654-156.111 190.222c-69.693 46.569-151.625 71.333-235.444 71.333zM512 792.222c68.074 0 134.622-20.18 191.222-58 56.601-37.821 100.726-91.662 126.778-154.556s32.839-132.009 19.556-198.778c-13.278-66.762-46.086-128.086-94.222-176.222s-109.46-80.944-176.222-94.222c-66.769-13.283-135.884-6.496-198.778 19.556s-116.735 70.176-154.556 126.778c-37.82 56.6-58 123.148-58 191.222 0 91.297 36.332 178.777 100.889 243.333s152.037 100.889 243.333 100.889zM533.333 701.111c-21.958-0.025-39.752-17.819-39.778-39.775v-194.891h-152.222c-21.958-0.025-39.753-17.819-39.778-39.775v-0.002c0.025-21.958 17.819-39.753 39.775-39.778h192.002c21.958 0.028 39.75 17.82 39.778 39.775v234.67c-0.025 21.958-17.819 39.753-39.775 39.778h-0.002z" />
<glyph unicode="&#xe918;" glyph-name="document-close" d="M569.667 460.778c-0.025 0-0.054 0-0.084 0-9.427 0-17.961-3.822-24.139-10l-128-128c-6.162-6.174-9.973-14.698-9.973-24.111s3.811-17.937 9.973-24.112l-0.001 0.001c6.18-6.195 14.726-10.028 24.167-10.028s17.987 3.833 24.166 10.028l128.001 128.001c6.162 6.174 9.973 14.698 9.973 24.111s-3.811 17.937-9.973 24.112l0.001-0.001c-6.171 6.172-14.694 9.992-24.11 10h-0.002zM441.667 460.778c-0.025 0-0.054 0-0.084 0-9.427 0-17.961-3.822-24.139-10v0c-6.162-6.174-9.973-14.698-9.973-24.111s3.811-17.937 9.973-24.112l127.999-127.999c6.18-6.195 14.726-10.028 24.167-10.028s17.987 3.833 24.166 10.028l0.001 0.001c6.162 6.174 9.973 14.698 9.973 24.111s-3.811 17.937-9.973 24.112l-127.999 127.999c-6.171 6.172-14.694 9.992-24.11 10h-0.002zM298.667 866.111c-42.987 0-84.27-17.048-114.667-47.444s-47.444-71.679-47.444-114.667v-512c0-42.986 17.049-84.268 47.444-114.667 30.396-30.391 71.677-47.444 114.667-47.444h426.667c42.988 0 84.269 17.054 114.667 47.444 30.39 30.397 47.444 71.679 47.444 114.667v416.333c0 42.989-17.053 84.271-47.444 114.667l-95.667 95.667c-30.395 30.399-71.677 47.444-114.667 47.444zM298.667 797.889h331c24.913 0 48.725-9.945 66.333-27.556l95.667-95.667c17.612-17.614 27.556-41.427 27.556-66.333v-416.333c0-24.904-9.943-48.716-27.556-66.333-17.617-17.613-41.43-27.556-66.333-27.556h-426.667c-24.907 0-48.719 9.944-66.333 27.556-17.614 17.616-27.556 41.428-27.556 66.333v512c0 24.908 9.943 48.72 27.556 66.333s41.425 27.556 66.333 27.556zM618.667 866.111c-18.834-0.013-34.098-15.277-34.111-34.11v-149.334c0-31.669 12.604-62.048 35-84.444s52.774-35 84.444-35h149.333c18.834 0.013 34.098 15.277 34.111 34.11v0.001c-0.013 18.834-15.277 34.098-34.11 34.111h-149.335c-13.59 0-26.613 5.391-36.222 15s-15 22.628-15 36.222v149.333c-0.013 18.834-15.277 34.098-34.11 34.111h-0.001z" />
<glyph unicode="&#xe919;" glyph-name="money-coins" d="M384 864c-62.343 0-118.815-9.721-162.625-27.25-21.905-8.764-40.849-19.428-55.875-33.625s-26.834-33.795-26.875-56.375c0-0.019 0-0.040 0-0.062s0-0.044 0-0.066v0.003c0-22.588 11.852-42.164 26.875-56.375s33.842-24.863 55.75-33.625c43.816-17.525 100.371-27.25 162.75-27.25s118.934 9.725 162.75 27.25c21.908 8.763 40.852 19.414 55.875 33.625 8.83 8.353 10.903 21.515 15.75 33.125 5.69 5.362 9.411 12.76 9.994 21.024l0.006 0.101c0.033 0.842 1 1.275 1 2.125-0.421 8.974-4.477 16.925-10.717 22.472l-0.033 0.028c-4.819 11.964-7.080 25.445-16.125 34-15.026 14.213-33.84 24.863-55.75 33.625-43.819 17.524-100.411 27.25-162.75 27.25zM384 800c55.421 0 105.603-9.394 139-22.75 16.698-6.678 28.938-14.418 35.5-20.625s6.751-8.904 6.75-9.875c0.042-0.042 0.083-0.083 0.123-0.123l0.001-0.001c0-0.985-0.186-3.666-6.75-9.875s-18.93-14.073-35.625-20.75c-33.389-13.355-83.534-22.625-139-22.625s-105.611 9.27-139 22.625c-16.695 6.677-29.061 14.541-35.625 20.75s-6.75 8.89-6.75 9.875c0.002 0.972 0.293 3.781 6.875 10s18.927 13.944 35.625 20.625c33.395 13.362 83.458 22.75 138.875 22.75zM597.375 778.625c-17.673 0-32-14.327-32-32v0-331c0-17.673 14.327-32 32-32v0c17.673 0 32 14.327 32 32v0 331c0 17.673-14.327 32-32 32v0zM170.75 608c-17.673 0-32-14.327-32-32v0c0-22.588 11.727-42.289 26.75-56.5s33.842-24.737 55.75-33.5c43.816-17.525 100.371-27.375 162.75-27.375s118.934 9.85 162.75 27.375c21.908 8.763 40.852 19.289 55.875 33.5s26.75 33.912 26.75 56.5c0 17.673-14.327 32-32 32v0c-17.673 0-32-14.327-32-32v0c0-0.985-0.186-3.791-6.75-10s-18.93-13.948-35.625-20.625c-33.39-13.355-83.534-22.75-139-22.75s-105.486 9.395-138.875 22.75c-16.695 6.677-29.061 14.416-35.625 20.625s-6.75 9.015-6.75 10c0 17.673-14.327 32-32 32v0zM704 479.75c-57.396 0-114.774-21.775-158.375-65.375-87.199-87.201-87.2-229.552 0-316.75 87.202-87.197 229.552-87.198 316.75 0s87.197 229.548 0 316.75c-43.599 43.6-100.979 65.375-158.375 65.375zM704 416.125c40.886 0 81.761-15.635 113.125-47 62.729-62.732 62.728-163.522 0-226.25s-163.518-62.729-226.25 0c-62.73 62.729-62.731 163.517 0 226.25 31.366 31.366 72.239 47 113.125 47zM170.75 437.375c-17.673 0-32-14.327-32-32v0c0-22.588 11.728-42.289 26.75-56.5s33.845-24.862 55.75-33.625c43.81-17.526 100.391-27.25 162.75-27.25 61.719 0 117.681 9.603 161.25 26.75 12.009 4.792 20.34 16.323 20.34 29.8 0 4.211-0.813 8.232-2.292 11.915l0.076-0.215c-4.819 11.951-16.321 20.232-29.758 20.232-4.227 0-8.263-0.82-11.957-2.309l0.215 0.077c-33.401-13.145-83.029-22.25-137.875-22.25-55.444 0-105.491 9.395-138.875 22.75-16.692 6.677-29.061 14.416-35.625 20.625s-6.75 9.015-6.75 10c0 17.673-14.327 32-32 32v0zM170.625 778.625c-17.673 0-32-14.327-32-32v0-512c0.020-22.585 11.85-42.169 26.875-56.375s33.843-24.863 55.75-33.625c43.814-17.524 100.391-27.25 162.75-27.25 60.524 0 115.27 9.265 158.375 25.75 12.16 4.719 20.624 16.326 20.624 29.91 0 4.123-0.78 8.063-2.2 11.683l0.075-0.217c-4.719 12.16-16.326 20.624-29.91 20.624-4.123 0-8.063-0.78-11.683-2.2l0.217 0.075c-33.439-12.789-81.763-21.625-135.5-21.625-55.444 0-105.608 9.269-139 22.625-16.696 6.678-28.928 14.536-35.5 20.75-6.516 6.161-6.87 8.866-6.875 9.875v512c0 17.673-14.327 32-32 32v0z" />
<glyph unicode="&#xe91a;" glyph-name="document-edit" d="M298.7 308c-16.951-0.011-30.689-13.749-30.7-30.699v-0.001c0.011-16.951 13.749-30.689 30.699-30.7h384.001c16.951 0.011 30.689 13.749 30.7 30.699v0.001c-0.011 16.951-13.749 30.689-30.699 30.7h-0.001zM844.5 841.4c-25.109 0-49.243-10.042-67-27.8l-203.1-203.1c-21.022-21.019-34.694-48.282-38.9-77.7l-11-77.4c-1.152-8.018-0.471-16.22 2.1-23.9 2.559-7.661 6.906-14.606 12.6-20.3 5.688-5.676 12.63-10.039 20.3-12.6 0.015 0 0.033 0 0.051 0s0.036 0 0.054 0h-0.003c7.637-2.537 15.718-3.233 23.7-2.1 0.015 0 0.033 0 0.051 0s0.036 0 0.054 0h-0.003l77.4 11c29.425 4.201 56.684 17.881 77.7 38.9l203.1 203.1c17.765 17.759 27.8 41.896 27.8 67s-10.036 49.242-27.8 67l-30.105 30.1c-17.757 17.758-41.891 27.8-67 27.8zM844.5 779.9c8.837 0 17.254-3.454 23.5-9.7l30.2-30.2c6.248-6.246 9.7-14.656 9.7-23.5s-3.452-17.254-9.7-23.5l-203.1-203.2c-11.619-11.621-26.735-19.078-43-21.4l-65-9.3 9.3 65c2.327 16.278 9.777 31.378 21.4 43l203.2 203.1c6.246 6.246 14.663 9.7 23.5 9.7zM741.6 765c-0.022 0-0.049 0-0.075 0-8.484 0-16.165-3.439-21.725-9v0c-5.576-5.562-9.025-13.253-9.025-21.75s3.45-16.188 9.025-21.749l120.701-120.701c5.562-5.576 13.253-9.025 21.75-9.025s16.188 3.45 21.749 9.025l0.001 0.001c5.576 5.562 9.025 13.253 9.025 21.75s-3.45 16.188-9.025 21.749l-120.701 120.701c-5.554 5.555-13.225 8.993-21.699 9h-0.001zM213.3 862.7c-30.767 0-60.244-12.243-82-34s-34-51.233-34-82v-597.4c0-30.77 12.241-60.246 34-82 21.756-21.759 51.232-34 82-34h554.7c30.767 0 60.344 12.237 82.1 34 21.761 21.754 34 51.23 34 82v256c0 0.024 0 0.052 0 0.080 0 16.966-13.754 30.72-30.72 30.72-0.028 0-0.056 0-0.084 0h0.004c-16.958-0.011-30.7-13.761-30.7-30.72 0-0.028 0-0.056 0-0.084v0.004-256c0-14.501-5.75-28.354-16-38.6-10.244-10.247-24.106-16-38.6-16h-554.7c-14.496 0-28.35 5.748-38.6 16-10.249 10.246-16 24.099-16 38.6v597.4c0 14.497 5.749 28.35 16 38.6s24.103 16 38.6 16h384c0.024 0 0.052 0 0.080 0 16.959 0 30.709 13.742 30.72 30.699v0.001c-0.011 16.958-13.761 30.7-30.72 30.7-0.028 0-0.056 0-0.084 0h0.004zM298.7 606.7c-16.951-0.011-30.689-13.749-30.7-30.699v-0.001c0.011-16.951 13.749-30.689 30.699-30.7h85.301c16.951 0.011 30.689 13.749 30.7 30.699v0.001c-0.011 16.951-13.749 30.689-30.699 30.7h-0.001zM298.7 457.4c-16.951-0.011-30.689-13.749-30.7-30.699v-0.001c0.011-16.951 13.749-30.689 30.699-30.7h85.301c16.951 0.011 30.689 13.749 30.7 30.699v0.001c-0.011 16.951-13.749 30.689-30.699 30.7h-0.001z" />
<glyph unicode="&#xe91b;" glyph-name="link-outline" d="M558.222 528.333c-9.417-0.008-17.94-3.828-24.111-10v0c-6.162-6.174-9.973-14.698-9.973-24.111s3.811-17.937 9.973-24.112l-0.001 0.001c0-0.016 0-0.036 0-0.055s0-0.039 0-0.058v0.003c34.366-34.387 34.387-89.080 0-123.444l-52.556-52.444c0.003 0.011-0.071-0.099-0.143-0.209l-0.079-0.127c-0.478-0.489-1.044-0.942-1.556-1.444-34.79-33.915-89.474-33.316-123.444 1.444-33.997 34.787-33.343 89.559 1.444 123.556 6.33 6.201 10.254 14.837 10.254 24.39 0 9.276-3.7 17.687-9.705 23.84l0.007-0.007c-6.201 6.33-14.837 10.254-24.39 10.254-9.276 0-17.687-3.7-23.84-9.705l0.007 0.007c-61.173-59.78-62.338-158.825-2.556-219.998s158.826-62.337 220-2.555c0.031 0.031 0.067 0.068 0.103 0.106l0.008 0.008c0.726 0.714 1.493 1.369 2.222 2.111l0.222 0.336 52.222 52.222c60.423 60.384 60.478 159.279 0.222 219.778-0.080 0.079-0.216 0.214-0.222 0.222-6.172 6.17-14.695 9.988-24.11 9.995h-0.001zM512 866.111c-230.524 0-418.111-187.587-418.111-418.111s187.587-418.111 418.111-418.111c230.523 0 418.111 187.588 418.111 418.111s-187.588 418.111-418.111 418.111zM512 797.889c193.629 0 349.889-156.259 349.889-349.889s-156.26-349.889-349.889-349.889c-193.63 0-349.889 156.26-349.889 349.889s156.259 349.889 349.889 349.889zM606.889 696.556c-39.892 0.459-79.858-14.22-110.444-44.111-0.848-0.83-1.726-1.707-2.556-2.556l-48.667-48.667c-60.483-60.448-60.559-159.518-0.111-220h0.111c6.174-6.162 14.698-9.973 24.111-9.973s17.937 3.811 24.112 9.973l-0.001-0.001c6.162 6.174 9.973 14.698 9.973 24.111s-3.811 17.937-9.973 24.112l0.001-0.001v0.111c-34.367 34.387-34.387 89.078 0 123.444l49 48.889c-0.002-0.009 0.071 0.099 0.144 0.208l0.078 0.125c0.472 0.483 0.962 0.972 1.444 1.444 34.787 33.996 89.562 33.341 123.556-1.444 33.995-34.787 33.342-89.56-1.444-123.556-6.33-6.201-10.255-14.838-10.255-24.39 0-9.275 3.7-17.687 9.704-23.839l-0.007 0.007c6.201-6.33 14.837-10.254 24.39-10.254 9.276 0 17.687 3.7 23.84 9.705l-0.007-0.007c61.175 59.783 62.338 158.827 2.557 220-29.891 30.587-69.663 46.208-109.556 46.667z" />
<glyph unicode="&#xe91c;" glyph-name="action-close" d="M739 733l-512-512c-7.434-7.416-12.034-17.671-12.034-29s4.6-21.584 12.033-28.999l0.001-0.001c7.416-7.434 17.671-12.034 29-12.034s21.584 4.599 28.999 12.033l512.001 512.001c7.434 7.416 12.034 17.671 12.034 29s-4.599 21.584-12.033 28.999l-0.001 0.001c-7.416 7.434-17.671 12.034-29 12.034s-21.584-4.6-28.999-12.033l-0.001-0.001zM256 745c-0.010 0-0.022 0-0.034 0-11.312 0-21.554-4.586-28.966-12v0c-7.434-7.416-12.034-17.671-12.034-29s4.599-21.584 12.033-28.999l512.001-512.001c7.416-7.434 17.671-12.034 29-12.034s21.584 4.6 28.999 12.033l0.001 0.001c7.434 7.416 12.034 17.671 12.034 29s-4.6 21.584-12.033 28.999l-512.001 512.001c-7.413 7.414-17.654 12-28.966 12-0.012 0-0.024 0-0.036 0h0.002z" />
<glyph unicode="&#xe91d;" glyph-name="arrow-to-outline" d="M512 1.734c-259.934 0-476 216.064-476 476 0 260.4 215.6 476 475.533 476 260.399 0 476.47-215.6 476.47-476 0-259.936-215.6-476-476.003-476zM512 81.067c220.269 0 396.663 176.401 396.663 396.667s-176.865 396.666-397.13 396.666c-220.266 0-395.733-176.4-395.733-396.666s175.933-396.667 396.2-396.667zM751.398 478.2c0-10.267-4.198-18.666-13.066-27.066l-157.731-158.2c-6.066-6.067-14.466-9.8-24.267-9.8-19.133 0-33.599 14.933-33.599 34.066 0 10.267 3.733 18.667 10.267 24.734l58.333 57.867 56.467 47.133-98.466-3.267h-243.6c-20.067 0-35 14.467-35 34.533 0 20.533 14.933 35 35 35h243.6l98.466-3.734-56.467 47.133-58.333 57.867c-6.067 6.533-10.267 14.933-10.267 25.2 0 19.133 14.466 33.599 33.599 33.599 9.8 0 18.201-3.267 24.267-9.333l157.731-158.667c9.332-9.333 13.066-16.8 13.066-27.067z" />
<glyph unicode="&#xe91e;" glyph-name="details-details" d="M298.667 871.778c-33.178 0-64.984-13.206-88.444-36.667s-36.667-55.266-36.667-88.444v-118.111c0.025-21.958 17.819-39.752 39.775-39.778h0.002c21.958 0.025 39.752 17.819 39.778 39.775v118.113c0 12.085 4.788 23.677 13.333 32.222s20.137 13.333 32.222 13.333h426.667c12.083 0 23.679-4.79 32.222-13.333s13.333-20.135 13.333-32.222v-118.111c0.025-21.958 17.819-39.752 39.775-39.778h0.002c21.958 0.025 39.753 17.819 39.778 39.775v118.113c0 33.176-13.094 64.983-36.556 88.444s-55.378 36.667-88.556 36.667zM384 295.778c-21.958-0.025-39.753-17.819-39.778-39.775v-0.002c0.025-21.958 17.819-39.753 39.775-39.778h256.002c21.958 0.025 39.753 17.819 39.778 39.775v0.002c-0.025 21.958-17.819 39.753-39.775 39.778h-0.002zM192 487.778c-27.52 0-53.985-10.875-73.444-30.333s-30.333-45.924-30.333-73.444v-234.667c0-33.178 13.204-65.093 36.667-88.556s55.269-36.556 88.444-36.556h597.333c33.175 0 65.092 13.092 88.556 36.556s36.556 55.381 36.556 88.556v234.667c0 27.518-10.87 53.983-30.333 73.444-19.458 19.455-45.923 30.333-73.444 30.333zM192 408.222h640c6.43 0 12.562-2.562 17.111-7.111 4.544-4.544 7.111-10.681 7.111-17.111v-234.667c0-12.086-4.791-23.68-13.333-32.222s-20.136-13.333-32.222-13.333h-597.333c-12.088 0-23.678 4.789-32.222 13.333s-13.333 20.139-13.333 32.222v234.667c0 6.427 2.566 12.566 7.111 17.111s10.684 7.111 17.111 7.111zM256 679.778c-33.178 0-64.984-13.206-88.444-36.667s-36.667-55.266-36.667-88.444v-110.333c0.025-21.958 17.819-39.753 39.775-39.778h0.002c21.958 0.025 39.753 17.819 39.778 39.775v110.335c0 12.085 4.788 23.677 13.333 32.222s20.137 13.333 32.222 13.333h512c12.083 0 23.679-4.79 32.222-13.333s13.333-20.135 13.333-32.222v-110.333c0.025-21.958 17.819-39.753 39.775-39.778h0.002c21.958 0.025 39.753 17.819 39.778 39.775v110.335c0 33.176-13.094 64.983-36.556 88.444s-55.378 36.667-88.556 36.667z" />
<glyph unicode="&#xe91f;" glyph-name="contact-chat" d="M806.111 865.333c-31.813 0.001-63.59-12.033-87.667-36.111-48.149-48.145-48.149-127.188 0-175.333 48.144-48.148 127.19-48.148 175.333 0 48.149 48.145 48.149 127.188 0 175.333-24.060 24.090-55.854 36.11-87.667 36.111zM806.111 797.444c14.192 0.001 28.433-5.419 39.444-16.444 0-0.016 0-0.036 0-0.055s0-0.039 0-0.058v0.003c22.086-22.084 22.086-56.693 0-78.778-22.080-22.082-56.809-22.082-78.889 0-22.086 22.084-22.086 56.693 0 78.778 0 0.016 0 0.036 0 0.055s0 0.039 0 0.058v-0.003c11.035 11.036 25.253 16.444 39.444 16.444zM248.889 822.889c-85.21 0-155-69.79-155-155v-322.444c0-85.213 69.79-155 155-155h46.444v-127c0-0.025 0-0.056 0-0.086 0-18.853 15.284-34.137 34.137-34.137 8.141 0 15.616 2.85 21.483 7.606l-0.064-0.050 192.111 153.667h189.444c85.208 0 155 69.788 155 155v120.111c-0.013 18.834-15.277 34.098-34.11 34.111h-0.001c-18.834-0.013-34.098-15.277-34.111-34.11v-120.112c0-48.34-38.445-86.667-86.778-86.667h-201.444c-8.11-0.021-15.552-2.867-21.397-7.605l0.064 0.050-146-116.889v90.222c0 0.025 0 0.055 0 0.085 0 18.844-15.269 34.122-34.11 34.137h-80.668c-48.336 0-86.778 38.327-86.778 86.667v322.444c0 48.336 38.442 86.667 86.778 86.667h287c18.842 0.013 34.111 15.29 34.111 34.133 0 0.031 0 0.062 0 0.094v-0.005c-0.013 18.834-15.277 34.098-34.11 34.111h-0.001z" />
<glyph unicode="&#xe920;" glyph-name="document-bookmark" d="M728.375 864c-20.599 0-40.313-8.193-54.875-22.75-14.574-14.569-22.75-34.408-22.75-55v-199.375c0-7.812 2.131-15.52 6.25-22.25 4.102-6.681 9.982-12.075 16.875-15.625 6.988-3.599 14.797-5.195 22.625-4.625 7.813 0.567 15.255 3.196 21.625 7.75l71.125 50.875 71.25-51c6.391-4.579 13.921-7.297 21.75-7.875 7.816-0.575 15.63 1.025 22.625 4.625 7.009 3.594 12.816 8.99 16.875 15.625 4.114 6.727 6.25 14.44 6.25 22.25v199.625c0 20.592-8.176 40.431-22.75 55-14.566 14.573-34.402 22.75-55 22.75zM728.375 800h121.875c3.645 0 7.177-1.426 9.75-4 2.577-2.577 4-6.095 4-9.75v-158.125l-49.75 35.75h-0.128c-7.237 5.168-15.893 7.995-24.75 8-8.887 0.005-17.631-2.702-24.872-7.875l-49.75-35.625v157.875c0 3.655 1.423 7.173 4 9.75 2.59 2.589 5.969 4 9.625 4zM213.375 864c-31.107 0-61.004-12.38-83-34.375s-34.375-51.893-34.375-83v-597.25c0-31.106 12.384-61.004 34.375-83 21.995-21.99 51.892-34.375 83-34.375h597.25c31.107 0 61.005 12.389 83 34.375 21.986 21.995 34.375 51.893 34.375 83v298.625c0 17.673-14.327 32-32 32v0c-17.673 0-32-14.327-32-32v0-298.625c0-14.154-5.612-27.732-15.625-37.75-10.018-10.014-23.596-15.625-37.75-15.625h-597.25c-14.156 0-27.738 5.615-37.75 15.625-10.014 10.017-15.625 23.595-15.625 37.75v597.25c0 14.157 5.615 27.739 15.625 37.75s23.593 15.625 37.75 15.625h298.625c17.673 0 32 14.327 32 32v0c0 17.673-14.327 32-32 32v0zM298.625 480c-17.673 0-32-14.327-32-32v0c0-17.673 14.327-32 32-32v0h170.75c17.673 0 32 14.327 32 32v0c0 17.673-14.327 32-32 32v0zM298.625 309.375c-17.673 0-32-14.327-32-32v0c0-17.673 14.327-32 32-32v0h426.75c17.673 0 32 14.327 32 32v0c0 17.673-14.327 32-32 32v0z" />
<glyph unicode="&#xe921;" glyph-name="document-add" d="M618.65 857.6c-14.138 0-25.6-11.462-25.6-25.6v0-149.35c0-29.413 11.706-57.602 32.5-78.4 0-0.008 0-0.017 0-0.026s0-0.018 0-0.027v0.001c20.797-20.797 49.039-32.45 78.45-32.45h149.35c14.138 0 25.6 11.462 25.6 25.6v0c0 14.138-11.462 25.6-25.6 25.6v0h-149.35c-15.85 0-31.042 6.292-42.25 17.5-11.211 11.212-17.5 26.347-17.5 42.2v149.351c0 14.138-11.462 25.6-25.6 25.6v0zM298.65 857.6c-40.728 0-79.802-16.201-108.6-45s-45-67.873-45-108.6v-298.65c0-14.138 11.462-25.6 25.6-25.6v0c14.138 0 25.6 11.462 25.6 25.6v0 298.65c0 27.168 10.789 53.189 30 72.4s45.231 30 72.4 30h331c27.169 0 53.189-10.789 72.4-30l95.7-95.7c19.211-19.211 30-45.235 30-72.4v-416.3c0-27.168-10.79-53.192-30-72.4-19.212-19.212-45.232-30-72.4-30h-213.35c-14.138 0-25.6-11.462-25.6-25.6v0c0-14.138 11.462-25.6 25.6-25.6v0h213.35c40.728 0 79.802 16.202 108.6 45 28.8 28.797 45 67.872 45 108.6v416.3c0 40.726-16.201 79.851-45 108.65l-95.7 95.65c-28.799 28.799-67.872 45-108.6 45zM298.65 302.95c-14.138 0-25.6-11.462-25.6-25.6v0-170.7c0-14.138 11.462-25.6 25.6-25.6v0c14.138 0 25.6 11.462 25.6 25.6v0 170.7c0 14.138-11.462 25.6-25.6 25.6v0zM213.35 217.6c-14.138 0-25.6-11.462-25.6-25.6v0c0-14.138 11.462-25.6 25.6-25.6v0h170.65c14.138 0 25.6 11.462 25.6 25.6v0c0 14.138-11.462 25.6-25.6 25.6v0z" />
<glyph unicode="&#xe922;" glyph-name="document-order" d="M213.333 823.444c-15.69 0.004-31.17-3.109-45.667-9.111s-27.683-14.794-38.778-25.889c-11.095-11.095-19.886-24.28-25.889-38.778s-9.115-29.977-9.111-45.667v-512c-0.004-15.69 3.108-31.169 9.111-45.667 6.002-14.496 14.793-27.682 25.889-38.778 11.072-11.072 24.195-19.889 38.667-25.889 14.496-6.005 30.077-9.119 45.778-9.111h597.333c15.7-0.008 31.281 3.105 45.778 9.111 14.47 6 27.593 14.815 38.667 25.889s19.889 24.197 25.889 38.667v0.114c5.978 14.466 9.119 30 9.111 45.664v386.556c0 31.675-12.607 62.052-35 84.444-22.394 22.394-52.775 34.998-84.444 35h-276.111c-1.391 0-2.77 0.349-4 1s-2.219 1.628-3 2.778l-60 88.111c-7.040 10.338-16.497 18.817-27.556 24.667-11.056 5.849-23.379 8.886-35.889 8.889zM213.333 755.222h190.778c1.388 0 2.771-0.35 4-1 1.226-0.649 2.217-1.628 3-2.778l59.889-88c7.040-10.365 16.597-18.915 27.667-24.778s23.36-8.889 35.889-8.889h276.111c13.591-0.001 26.61-5.388 36.222-15 9.613-9.613 15-22.634 15-36.222v-386.556c0.003-6.714-1.316-13.345-3.889-19.556-2.567-6.204-6.357-11.913-11.111-16.667s-10.463-8.544-16.667-11.111c-6.21-2.573-12.842-3.892-19.556-3.889h-597.333c-6.714-0.003-13.343 1.315-19.556 3.889-6.203 2.566-11.912 6.356-16.667 11.111-4.753 4.753-8.539 10.455-11.111 16.667-2.571 6.21-3.891 12.831-3.889 19.556v512c-0.002 6.724 1.317 13.344 3.889 19.556s6.357 11.912 11.111 16.667c4.754 4.754 10.455 8.539 16.667 11.111s12.831 3.891 19.556 3.889zM298.667 311.444c-18.834-0.013-34.098-15.277-34.111-34.11v-0.001c0.013-18.834 15.277-34.098 34.11-34.111h426.668c18.834 0.013 34.098 15.277 34.111 34.11v0.001c-0.013 18.834-15.277 34.098-34.11 34.111h-0.001z" />
<glyph unicode="&#xe923;" glyph-name="money-pay" d="M689.917 861c-2.151 0.554-4.62 0.872-7.163 0.872-5.697 0-11.021-1.595-15.551-4.363l0.131 0.074-181.417-108.833c-25.741-15.446-46.572-37.899-60-64.75l-12.417-24.917c-10.962-21.921-16.667-46.161-16.667-70.667v-55.083c0.019-16.469 13.364-29.814 29.832-29.833h0.002c16.469 0.019 29.814 13.364 29.833 29.832v55.085c0 15.237 3.604 30.291 10.417 43.917l12.5 25c8.35 16.696 21.246 30.646 37.25 40.25l181.333 108.833c8.734 5.317 14.478 14.786 14.478 25.597 0 5.656-1.572 10.944-4.303 15.453l0.075-0.133c-4.051 6.715-10.496 11.639-18.126 13.621l-0.208 0.046zM277.333 563.167c-41.858 0-82.069-16.57-111.667-46.167-29.598-29.598-46.167-69.811-46.167-111.667v-64c0.019-16.469 13.364-29.814 29.832-29.833h0.002c16.469 0.019 29.814 13.364 29.833 29.832v64.002c0 26.035 10.339 51.006 28.75 69.417 18.412 18.412 43.379 28.75 69.417 28.75h362.667c16.469 0.019 29.814 13.364 29.833 29.832v0.002c-0.019 16.469-13.364 29.814-29.832 29.833h-0.002zM768 407.583c-16.481-0.019-29.833-13.383-29.833-29.867 0-0.018 0-0.035 0-0.053v0.003-185.667c0-26.035-10.339-51.006-28.75-69.417s-43.382-28.75-69.417-28.75h-234.667c-16.469-0.019-29.814-13.364-29.833-29.832v-0.002c0.019-16.469 13.364-29.814 29.832-29.833h234.668c41.856 0 82.069 16.569 111.667 46.167s46.167 69.81 46.167 111.667v185.667c0 0.015 0 0.032 0 0.050 0 16.483-13.353 29.848-29.832 29.867h-0.002zM949.333 646.583c-3.168 1.249-6.838 1.974-10.677 1.974-12.669 0-23.495-7.888-27.836-19.020l-0.070-0.203-45.75-119.833c-10.435-27.292-29.11-50.626-53.417-66.833l-192.917-128.667c-7.77-5.181-17.125-7.503-26.417-6.583-9.29 0.92-17.98 4.982-24.583 11.583-7.574 7.574-11.748 17.86-11.75 28.583 0 10.713 4.181 20.928 11.75 28.5l93.5 93.5c5.356 5.397 8.667 12.831 8.667 21.039 0 0.016 0 0.031 0 0.047v-0.002 85.333c-0.019 16.469-13.364 29.814-29.832 29.833h-0.002c-16.469-0.019-29.814-13.364-29.833-29.832v-73.002l-84.75-84.667c-18.756-18.762-29.25-44.223-29.25-70.75 0.006-26.525 10.573-52.073 29.333-70.833 16.36-16.354 37.899-26.47 60.917-28.75 23.024-2.28 46.087 3.417 65.333 16.25l192.917 128.667c34.616 23.080 61.226 56.392 76.083 95.25l45.833 119.833c1.249 3.168 1.974 6.838 1.974 10.677 0 12.669-7.888 23.495-19.020 27.836l-0.203 0.070zM170.667 93.833c-16.469-0.019-29.814-13.364-29.833-29.832v-0.002c0.019-16.469 13.364-29.814 29.832-29.833h85.335c16.469 0.019 29.814 13.364 29.833 29.832v0.002c-0.019 16.469-13.364 29.814-29.832 29.833h-0.002zM85.333 221.833c-16.469-0.019-29.814-13.364-29.833-29.832v-0.002c0.019-16.469 13.364-29.814 29.832-29.833h170.668c16.469 0.019 29.814 13.364 29.833 29.832v0.002c-0.019 16.469-13.364 29.814-29.832 29.833h-0.002z" />
<glyph unicode="&#xe924;" glyph-name="details-plans" d="M298.667 861.833c-30.504 0-59.828-12.12-81.417-33.667-21.597-21.596-33.75-50.959-33.75-81.5v-118.083c0-0.015 0-0.032 0-0.050 0-16.483 13.353-29.848 29.832-29.867h0.002c16.481 0.019 29.833 13.383 29.833 29.867 0 0.018 0 0.035 0 0.053v-0.003 118.083c0 14.722 5.84 28.84 16.25 39.25s24.528 16.25 39.25 16.25h426.667c14.72 0 28.838-5.839 39.25-16.25 10.41-10.41 16.25-24.528 16.25-39.25v-118.083c0-0.015 0-0.032 0-0.050 0-16.483 13.353-29.848 29.832-29.867h0.002c16.481 0.019 29.833 13.383 29.833 29.867 0 0.018 0 0.035 0 0.053v-0.003 118.083c0 30.541-12.152 59.904-33.75 81.5s-50.876 33.667-81.417 33.667zM384 285.833c-16.469-0.019-29.814-13.364-29.833-29.832v-0.002c0.019-16.469 13.364-29.814 29.832-29.833h256.002c16.469 0.019 29.814 13.364 29.833 29.832v0.002c-0.019 16.469-13.364 29.814-29.832 29.833h-0.002zM192 477.833c-24.882 0-48.737-9.82-66.333-27.417s-27.5-41.533-27.5-66.417v-234.667c0-30.54 12.071-59.82 33.667-81.417s50.959-33.75 81.5-33.75h597.333c30.54 0 59.82 12.153 81.417 33.75s33.75 50.877 33.75 81.417v234.667c0 24.881-9.819 48.819-27.417 66.417s-41.535 27.417-66.417 27.417zM192 418.167h640c9.064 0 17.76-3.593 24.167-10s10-15.102 10-24.167v-234.667c0-14.721-5.838-28.838-16.25-39.25s-24.529-16.25-39.25-16.25h-597.333c-14.722 0-28.84 5.84-39.25 16.25-10.411 10.412-16.25 24.53-16.25 39.25v234.667c0 9.062 3.593 17.759 10 24.167s15.101 10 24.167 10zM256 669.833c-30.504 0-59.828-12.12-81.417-33.667-21.597-21.596-33.75-50.959-33.75-81.5v-110.333c0.019-16.469 13.364-29.814 29.832-29.833h0.002c16.469 0.019 29.814 13.364 29.833 29.831v110.335c0 14.722 5.84 28.84 16.25 39.25s24.528 16.25 39.25 16.25h512c14.72 0 28.838-5.839 39.25-16.25 10.41-10.41 16.25-24.528 16.25-39.25v-110.333c0.019-16.469 13.364-29.814 29.832-29.833h0.002c16.469 0.019 29.814 13.364 29.833 29.831v110.335c0 30.541-12.152 59.904-33.75 81.5s-50.876 33.667-81.417 33.667z" />
<glyph unicode="&#xe925;" glyph-name="status-favourite" d="M512 866.333c-11.721 0-21.864-6.751-26.755-16.577l-0.078-0.173-118.333-241.583-264.5-39c-14.509-2.207-25.498-14.594-25.498-29.548 0-8.33 3.41-15.864 8.911-21.282l191.504-188.004-45.167-265.583c-0.27-1.508-0.424-3.244-0.424-5.016 0-16.497 13.373-29.87 29.87-29.87 5.112 0 9.923 1.284 14.13 3.547l-0.159-0.078 236.5 125.333 236.5-125.333c4.048-2.185 8.86-3.469 13.971-3.469 16.497 0 29.87 13.373 29.87 29.87 0 1.772-0.154 3.508-0.45 5.195l0.026-0.179-45.167 265.583 191.5 188c5.504 5.421 8.914 12.955 8.914 21.285 0 14.954-10.989 27.341-25.332 29.527l-0.166 0.021-264.5 39-118.333 241.583c-4.969 9.999-15.113 16.75-26.833 16.75v0zM512 768.583l98.417-201c4.32-8.69 12.509-14.896 22.25-16.396l0.167-0.021 220.667-32.5-159.75-156.75c-5.512-5.422-8.927-12.962-8.927-21.298 0-1.779 0.155-3.521 0.454-5.215l-0.026 0.18 37.667-221.25-196.917 104.333c-4.055 2.194-8.877 3.484-14 3.484s-9.945-1.29-14.159-3.562l0.159 0.078-196.917-104.333 37.667 221.25c0.272 1.514 0.427 3.256 0.427 5.035 0 8.337-3.415 15.876-8.923 21.294l-159.754 156.754 220.583 32.5c9.941 1.494 18.165 7.707 22.422 16.244l0.078 0.173z" />
<glyph unicode="&#xe926;" glyph-name="money-sale" d="M661.417 733.667c-24.061 0.003-48.172-9.13-66.417-27.25 0-0.012 0-0.027 0-0.042s0-0.029 0-0.044v0.002c-36.408-36.405-36.408-96.261 0-132.667 36.406-36.403 96.261-36.403 132.667 0 36.408 36.405 36.408 96.261 0 132.667-18.179 18.177-42.189 27.33-66.25 27.333zM685.5 664.167c13.589-13.588 13.589-34.745 0-48.333-13.591-13.59-34.743-13.59-48.333 0-13.565 13.565-13.519 34.66 0 48.25 13.848 13.753 34.694 13.721 48.333 0.083zM576.5 861.833c-31.701 0-62.122-12.565-84.5-35l-358.833-358.833c-46.442-46.442-46.442-122.641 0-169.083l187.083-187.083c46.442-46.442 122.641-46.442 169.083 0l55.917 55.917c5.408 5.405 8.754 12.875 8.754 21.125s-3.345 15.72-8.754 21.125v0c-5.405 5.408-12.875 8.754-21.125 8.754s-15.72-3.345-21.125-8.754l-55.917-55.917c-23.617-23.617-60.967-23.617-84.583 0l-187.083 187.083c-23.617 23.617-23.617 60.967 0 84.583l358.833 358.833c0 0.012 0 0.027 0 0.042s0 0.029 0 0.044v-0.002c11.158 11.187 26.421 17.5 42.25 17.5h187.083c33.511 0 59.917-26.435 59.917-59.833v-187.083c0-15.886-6.343-31.064-17.667-42.417l-55.833-55.833c-5.408-5.405-8.754-12.875-8.754-21.125s3.345-15.72 8.754-21.125v0c5.405-5.408 12.875-8.754 21.125-8.754s15.72 3.345 21.125 8.754v0l55.917 55.833c0 0.013 0 0.028 0 0.043s0 0.030 0 0.045v-0.002c22.383 22.439 35 52.854 35 84.583v187.081c0 65.674-53.852 119.5-119.583 119.5zM778.667 323.167c-8.235-0.011-15.687-3.353-21.083-8.75v0l-72.25-72.167-34.833 34.833c-5.41 5.434-12.896 8.797-21.168 8.797-8.229 0-15.681-3.328-21.083-8.712l0.001 0.001c-5.434-5.41-8.797-12.896-8.797-21.168 0-8.229 3.328-15.681 8.712-21.083l-0.001 0.001 56-56.083c5.406-5.408 12.875-8.753 21.125-8.753s15.719 3.345 21.125 8.753l93.333 93.417c5.384 5.401 8.712 12.854 8.712 21.083s-3.329 15.682-8.713 21.084l0.001-0.001c-5.396 5.396-12.848 8.737-21.079 8.748h-0.002zM704.167 477.833c-120.746 0.098-222-101.049-222-221.833 0-122.172 99.661-221.833 221.833-221.833 122.208 0 221.833 99.669 221.833 221.833 0 122.12-99.552 221.735-221.667 221.833zM704.081 418.167c89.853-0.073 162.083-72.318 162.083-162.167 0-89.889-72.236-162.167-162.167-162.167-89.881 0-162.167 72.285-162.167 162.167 0 86.917 75.38 162.238 162.25 162.167z" />
<glyph unicode="&#xe927;" glyph-name="details-services" d="M192 861.833c-51.487 0-93.833-42.346-93.833-93.833v-128c0-51.487 42.346-93.833 93.833-93.833h128c51.487 0 93.833 42.346 93.833 93.833v128c0 51.487-42.346 93.833-93.833 93.833zM192 802.167h128c19.205 0 34.167-14.961 34.167-34.167v-128c0-19.205-14.961-34.167-34.167-34.167h-128c-19.205 0-34.167 14.961-34.167 34.167v128c0 19.205 14.961 34.167 34.167 34.167zM576 861.833c-51.487 0-93.833-42.345-93.833-93.833v-128c0-51.488 42.347-93.833 93.833-93.833h256c51.487 0 93.833 42.345 93.833 93.833v128c0 51.488-42.347 93.833-93.833 93.833zM576 802.167h256c19.203 0 34.167-14.962 34.167-34.167v-128c0-19.205-14.963-34.167-34.167-34.167h-256c-19.203 0-34.167 14.962-34.167 34.167v128c0 19.205 14.963 34.167 34.167 34.167zM494 413.833c-0.088 0.001-0.193 0.001-0.297 0.001-8.124 0-15.491-3.244-20.875-8.507l0.006 0.006-163.333-159.833-39.583 39.75c-5.405 5.408-12.875 8.754-21.125 8.754s-15.72-3.345-21.125-8.754v0c-5.433-5.41-8.795-12.895-8.795-21.167 0-8.23 3.329-15.682 8.713-21.084l-0.001 0.001 60.583-60.667c5.402-5.383 12.854-8.712 21.084-8.712 8.147 0 15.532 3.261 20.92 8.55l184.412 180.495c5.534 5.425 8.965 12.979 8.965 21.334 0 8.147-3.262 15.532-8.551 20.921l0.004-0.005c-5.355 5.44-12.773 8.835-20.985 8.917h-0.015zM234.25 459.583c-74.816 0-136.083-61.35-136.083-136.167v-153.167c0-74.816 61.268-136.083 136.083-136.083h153.167c74.816 0 136.167 61.267 136.167 136.083v30.917c-0.019 16.481-13.383 29.833-29.867 29.833-0.018 0-0.035 0-0.053 0h0.003c-16.469-0.019-29.814-13.364-29.833-29.832v-30.919c0-42.534-33.882-76.417-76.417-76.417h-153.167c-42.534 0-76.417 33.882-76.417 76.417v153.167c0 42.534 33.883 76.417 76.417 76.417h122.333c16.469 0.019 29.814 13.364 29.833 29.831v0.002c0 0.015 0 0.032 0 0.050 0 16.483-13.353 29.848-29.832 29.867h-0.002zM704 477.833c-51.487 0-93.833-42.346-93.833-93.833v-128c0-51.487 42.346-93.833 93.833-93.833h128c51.487 0 93.833 42.346 93.833 93.833v128c0 51.487-42.346 93.833-93.833 93.833zM704 418.167h128c19.203 0 34.167-14.964 34.167-34.167v-128c0-19.203-14.964-34.167-34.167-34.167h-128c-19.203 0-34.167 14.964-34.167 34.167v128c0 19.203 14.964 34.167 34.167 34.167z" />
<glyph unicode="&#xe928;" glyph-name="action-download" d="M512 786.444c-21.958-0.025-39.752-17.819-39.778-39.775v-464.558c0-0.020 0-0.043 0-0.067 0-21.978 17.804-39.797 39.775-39.822h0.002c21.974 0.025 39.778 17.845 39.778 39.822 0 0.023 0 0.047 0 0.070v-0.004 464.556c-0.025 21.958-17.819 39.752-39.775 39.778h-0.002zM213.333 321.889c-21.958-0.025-39.752-17.819-39.778-39.775v-0.002c0-94.827 77.724-172.556 172.556-172.556h331.778c94.832 0 172.556 77.729 172.556 172.556-0.025 21.958-17.819 39.753-39.775 39.778h-0.002c-21.958-0.025-39.753-17.819-39.778-39.775v-0.002c0-51.776-41.218-93-93-93h-331.778c-51.78 0-93 41.225-93 93-0.025 21.958-17.819 39.753-39.775 39.778h-0.002zM346 487.778c-10.98-0.014-20.916-4.47-28.111-11.667v0c-7.178-7.202-11.616-17.138-11.616-28.111s4.438-20.909 11.617-28.112l165.888-165.999c7.208-7.21 17.166-11.67 28.167-11.67s20.959 4.46 28.167 11.67l166 166c7.178 7.202 11.616 17.138 11.616 28.111s-4.438 20.909-11.617 28.112l0.001-0.001c-7.207 7.211-17.166 11.672-28.167 11.672s-20.959-4.461-28.166-11.672l-137.778-137.778-137.778 137.778c-7.207 7.208-17.163 11.667-28.162 11.667-0.021 0-0.043 0-0.064 0h0.003z" />
<glyph unicode="&#xe929;" glyph-name="arrow-sort-down" d="M390.429 307.857c-6.476 5.923-15.137 9.551-24.645 9.551-10.715 0-20.354-4.608-27.043-11.951l-0.026-0.029c-5.919-6.475-9.545-15.133-9.545-24.639 0-10.644 4.547-20.226 11.805-26.91l0.026-0.023 137.143-125.429c6.486-5.96 15.173-9.613 24.714-9.613s18.229 3.653 24.741 9.637l-0.026-0.024 137.143 125.429c7.284 6.707 11.831 16.289 11.831 26.933 0 9.505-3.626 18.163-9.571 24.667l0.025-0.028c-6.715 7.372-16.354 11.98-27.069 11.98-9.508 0-18.169-3.629-24.673-9.577l0.028 0.025-112.429-102.857zM502.857 777.143c-20.198 0-36.571-16.374-36.571-36.571v0-585.143c0-20.198 16.374-36.571 36.571-36.571v0c20.198 0 36.571 16.374 36.571 36.571v0 585.143c0 20.198-16.374 36.571-36.571 36.571v0z" />
<glyph unicode="&#xe92a;" glyph-name="details-rouming" d="M512 951.5c-0.010 0-0.022 0-0.033 0-18.851 0-34.133-15.282-34.133-34.133 0-0.012 0-0.023 0-0.035v0.002c0-0.010 0-0.022 0-0.033 0-18.851 15.282-34.133 34.133-34.133 0.012 0 0.023 0 0.035 0h-0.002c241.449 0 435.167-193.719 435.167-435.167s-193.717-435.167-435.167-435.167c-0.010 0-0.022 0-0.033 0-18.851 0-34.133-15.282-34.133-34.133 0-0.012 0-0.023 0-0.035v0.002c0.028-18.83 15.3-34.083 34.133-34.083 0.012 0 0.023 0 0.035 0h-0.002c278.154 0 503.5 225.263 503.5 503.417 0 278.152-225.346 503.5-503.5 503.5zM512 951.5c-278.152 0-503.5-225.348-503.5-503.5 0-278.154 225.348-503.417 503.5-503.417 0.010 0 0.022 0 0.033 0 18.834 0 34.105 15.254 34.133 34.081v0.003c0 0.010 0 0.022 0 0.033 0 18.851-15.282 34.133-34.133 34.133-0.012 0-0.023 0-0.035 0h0.002c-241.447 0-435.167 193.717-435.167 435.167 0 241.447 193.72 435.167 435.167 435.167 0.010 0 0.022 0 0.033 0 18.851 0 34.133 15.282 34.133 34.133 0 0.012 0 0.023 0 0.035v-0.002c0 0.010 0 0.022 0 0.033 0 18.851-15.282 34.133-34.133 34.133-0.012 0-0.023 0-0.035 0h0.002zM512 949.917c-48.383-0.001-96.769-23.463-124.833-70.333-157.363-262.726-157.363-600.527 0-863.25 56.123-93.733 193.514-93.697 249.667 0 157.364 262.723 157.364 600.524 0 863.25-28.090 46.862-76.451 70.335-124.833 70.333zM512 884.75c25.107-0.001 50.255-13.427 66.333-40.25 144.051-240.5 144.051-552.587 0-793.083-32.103-53.618-100.479-53.619-132.583 0-144.050 240.496-144.050 552.583 0 793.083 16.055 26.814 41.143 40.251 66.25 40.25zM105.417 696.583c-3.011 0.963-6.474 1.518-10.067 1.518-15.241 0-28.148-9.989-32.534-23.776l-0.066-0.242c-0.963-3.011-1.518-6.474-1.518-10.067 0-15.241 9.989-28.148 23.776-32.534l0.242-0.066c262.872-81.193 590.592-81.195 853.417 0 14.069 4.428 24.094 17.355 24.094 32.624 0 3.584-0.552 7.039-1.577 10.285l0.066-0.242c-4.444 14.042-17.358 24.042-32.607 24.042-3.621 0-7.11-0.564-10.384-1.608l0.242 0.067c-247.29-76.396-565.741-76.397-813.083 0zM512 325.5c-147.643 0-295.256-20.321-426.667-60.917-14.069-4.428-24.094-17.355-24.094-32.624 0-3.584 0.552-7.039 1.577-10.285l-0.066 0.242c4.444-14.042 17.358-24.042 32.607-24.042 3.621 0 7.11 0.564 10.384 1.608l-0.242-0.067c247.287 76.393 565.74 76.394 813.083 0 3.011-0.963 6.474-1.518 10.067-1.518 15.241 0 28.148 9.989 32.534 23.776l0.066 0.242c0.963 3.011 1.518 6.474 1.518 10.067 0 15.241-9.989 28.148-23.776 32.534l-0.242 0.066c-131.436 40.595-279.107 60.917-426.75 60.917z" />
<glyph unicode="&#xe92b;" glyph-name="contact-email" d="M512 864c-229.371 0-416-186.629-416-416s186.629-416 416-416h153.625c17.673 0 32 14.327 32 32v0c0 17.673-14.327 32-32 32v0h-153.625c-194.783 0-352 157.217-352 352s157.217 352 352 352c194.783 0 352-157.217 352-352v-64c0-41.62-33.008-74.625-74.625-74.625s-74.75 33.005-74.75 74.625v64c0 0.030 0 0.065 0 0.1 0 4.477-0.919 8.739-2.58 12.608l0.079-0.208c-6.833 105.455-93.007 190.125-200.125 190.125-111.542 0-202.625-91.084-202.625-202.625s91.084-202.625 202.625-202.625c67.045 0 123.818 35.015 160.75 85.5 22.090-47.476 61.101-85.5 116.625-85.5 76.207 0 138.625 62.415 138.625 138.625v64c0 229.371-186.629 416-416 416zM512 586.625c76.953 0 138.625-61.671 138.625-138.625s-61.671-138.625-138.625-138.625c-76.953 0-138.625 61.671-138.625 138.625s61.671 138.625 138.625 138.625z" />
<glyph unicode="&#xe92c;" glyph-name="status-error-outline" d="M512-54.619c-264 0-481.385 217.387-481.385 481.388 0 263.538 217.385 481.385 480.923 481.385 264 0 481.844-217.846 481.844-481.385 0-264.001-217.383-481.388-481.382-481.388zM512 51.074c208.154 0 375.69 167.541 375.69 375.695s-167.536 375.692-376.151 375.692c-208.154 0-374.769-167.538-374.769-375.692s167.077-375.695 375.231-375.695zM511.538 354.77c-27.692 0-43.846 15.231-44.769 43.385l-6.923 210.461c-0.923 29.077 20.307 49.385 51.231 49.385s53.077-20.77 51.692-49.847l-6.923-209.538c-1.385-29.077-17.077-43.846-44.308-43.846zM511.538 199.693c-31.385 0-57.231 21.692-57.231 52.615 0 30.462 25.384 52.615 57.231 52.615 32.308 0 57.231-22.154 57.231-52.615 0-31.384-25.384-52.615-57.231-52.615z" />
<glyph unicode="&#xe92d;" glyph-name="details-history" d="M149.333 658.444c-21.958-0.025-39.753-17.819-39.778-39.775v-0.002c0.025-21.958 17.819-39.752 39.775-39.778h725.336c21.958 0.025 39.753 17.819 39.778 39.775v0.002c-0.025 21.958-17.819 39.753-39.775 39.778h-0.002zM149.333 829.111c-21.958-0.025-39.753-17.819-39.778-39.775v-0.002c0.025-21.958 17.819-39.753 39.775-39.778h725.336c21.958 0.025 39.753 17.819 39.778 39.775v0.002c-0.025 21.958-17.819 39.752-39.775 39.778h-0.002zM170.667 487.778c-21.862 0-42.874-8.652-58.333-24.111s-24.111-36.471-24.111-58.333v-256c0-33.178 13.204-65.093 36.667-88.556s55.269-36.556 88.444-36.556h597.333c33.175 0 65.092 13.092 88.556 36.556s36.556 55.381 36.556 88.556v256c0 21.86-8.645 42.872-24.111 58.333-15.461 15.467-36.471 24.111-58.333 24.111h-101.444c-27.521 0-53.987-10.879-73.444-30.333l-47.889-47.889c-4.548-4.548-10.678-7.111-17.111-7.111h-202.889c-6.43 0-12.568 2.568-17.111 7.111l-47.889 47.889c-19.46 19.459-45.924 30.333-73.444 30.333zM170.667 408.222h101.444c6.427 0 12.566-2.566 17.111-7.111l47.889-47.889c19.461-19.464 45.927-30.333 73.444-30.333h202.889c27.518 0 53.985 10.874 73.444 30.333l47.889 47.889c4.549 4.549 10.681 7.111 17.111 7.111h101.444c0.768 0 1.464-0.353 2-0.889 0.54-0.542 0.889-1.228 0.889-2v-256c0-12.086-4.791-23.68-13.333-32.222s-20.136-13.333-32.222-13.333h-597.334c-12.088 0-23.678 4.789-32.222 13.333s-13.333 20.139-13.333 32.222v256c0 0.769 0.345 1.456 0.889 2s1.231 0.889 2 0.889z" />
<glyph unicode="&#xe92e;" glyph-name="status-read" d="M511.111 873c-27.717-0.057-53.484-13.472-78.444-27.222-7.637-4.207-16.957-2.841-24-8.333-0.195-0.152-0.472-0.069-0.667-0.222 0.046 0.169 0.008 0.058-0.029-0.053l-0.082-0.281-255.222-198.778c-0.016 0-0.036 0-0.055 0s-0.039 0-0.058 0h0.003c-40.799-31.857-64.334-80.886-64.334-132.556v-308.889c-0.549-0.69-1.134-1.487-1.688-2.305l-0.089-0.14c0-9.332 8.507-15.071 10-24l-1.444-0.558 1.667-2.222c0.086-0.041 0.457-0.155 0.829-0.265l0.282-0.071c14.632-77.32 74.71-140.234 156.222-140.778 0.116-0.001 0.252-0.002 0.389-0.002s0.273 0.001 0.41 0.002h511.979c92.121 0 167.778 75.657 167.778 167.778v312.782c0 51.267-23.324 100.438-64.444 132.111l-0.114 0.111-255.889 198.778c-30.184 23.479-66.565 35.186-102.997 35.111zM511.222 793.444c19.034 0.032 38.107-6.083 54-18.444l256-198.889c-0.152 0.067-0.079 0.030-0.006-0.007l0.228-0.104c21.014-16.12 33.444-41.978 33.444-69.111v-312.778c0-48.679-39.432-88.111-88.111-88.111l-508.222-0.222c-1.191 0.134-2.582 0.214-3.989 0.222h-0.011c-48.337 0.291-85.414 38.032-87.222 85.222 0.109 0.142 0.291 0.396 0.471 0.651l0.084 0.127v313.556c0 27.691 12.173 52.995 33.667 69.778l256 199.222c-0.067-0.152-0.030-0.079 0.007-0.006l0.104 0.229c15.846 12.364 34.639 18.634 53.556 18.666zM569.222 454.778l-78.556-78.556-35.889 35.889c-7.202 7.178-17.138 11.616-28.111 11.616s-20.909-4.438-28.112-11.617l0.001 0.001c-7.178-7.202-11.616-17.138-11.616-28.111s4.438-20.909 11.617-28.112l63.999-63.999c7.202-7.177 17.138-11.615 28.111-11.615s20.909 4.437 28.112 11.616l106.666 106.666c7.178 7.202 11.616 17.138 11.616 28.111s-4.438 20.909-11.617 28.112l0.001-0.001c-7.202 7.178-17.138 11.616-28.111 11.616s-20.909-4.438-28.112-11.617l0.001 0.001z" />
<glyph unicode="&#xe92f;" glyph-name="sim-iccid" d="M438.353 518.235c-43.333 0-76.941-37.337-76.941-80.235v-140.588c0-42.898 33.622-80.353 76.941-80.353h187.412c43.332 0 76.941 37.455 76.941 80.353v140.588c0 42.898-33.62 80.235-76.941 80.235zM438.353 458h187.412c8.408 0 16.706-7.482 16.706-20v-140.588c0-12.518-8.236-20.118-16.706-20.118h-187.412c-8.403 0-16.706 7.599-16.706 20.118v140.588c0 12.518 8.237 20 16.706 20zM311.176 839.529c-60.636 0-110.353-49.835-110.353-110.471v-562.118c0-60.633 49.716-110.471 110.353-110.471h441.765c60.638 0 110.471 49.836 110.471 110.471v402.706c0 28.658-11.175 56.329-31.176 76.941l-154.471 159.294c-20.799 21.516-49.442 33.647-79.294 33.647zM311.176 779.294h287.294c13.596 0 26.598-5.45 36-15.176 0-0.017 0-0.038 0-0.059s0-0.041 0-0.062v0.003l154.471-159.412c9.069-9.346 14.235-21.916 14.235-34.941v-402.706c0-28.104-22.123-50.235-50.235-50.235h-441.765c-28.11 0-50.118 22.13-50.118 50.235v562.118c0 28.11 22.007 50.235 50.118 50.235z" />
<glyph unicode="&#xe930;" glyph-name="status-favourite-fill" d="M196.857 11.717c-17.572 13.283-21.429 35.138-10.715 66.428l89.571 266.568-228.857 164.571c-26.571 18.857-37.714 38.571-30.429 60 6.857 20.571 27 30.858 60 30.429l280.714-1.714 85.286 267.857c10.285 31.714 25.714 47.571 47.571 47.571 22.286 0 37.714-15.857 48-47.571l85.285-267.857 280.716 1.714c32.995 0.429 53.138-9.857 59.999-30.429 6.853-21.429-3.855-41.143-30.427-60l-228.859-164.571 89.573-266.568c10.715-31.291 6.853-53.146-10.715-66.428-18-13.714-39.856-9.004-66.429 10.284l-227.143 166.715-226.714-166.715c-26.571-19.288-48.857-23.998-66.428-10.284z" />
<glyph unicode="&#xe931;" glyph-name="status-check-outline-fill" d="M514-44c-257.077 0-470.769 213.693-470.769 470.77 0 257.538 213.231 470.769 470.308 470.769 257.538 0 471.235-213.231 471.235-470.769 0-257.077-213.235-470.77-470.773-470.77zM462.308 201.077c15.692 0 29.077 7.385 38.769 22.615l216.923 341.539c5.539 9.693 11.539 20.307 11.539 30.462 0 21.692-18.924 35.538-39.231 35.538-12 0-24-7.385-32.769-21.231l-197.077-316.615-93.692 120.923c-11.538 15.23-21.692 19.384-35.077 19.384-20.769 0-36.923-17.077-36.923-37.846 0-10.616 4.154-20.769 11.077-30l115.847-142.154c12-16.153 24.923-22.615 40.615-22.615z" />
<glyph unicode="&#xe932;" glyph-name="arrow-sort-both" d="M258.714 767.571l-137.143-125.429c-7.284-6.707-11.831-16.289-11.831-26.933 0-9.505 3.626-18.163 9.571-24.667l-0.025 0.028c6.715-7.372 16.354-11.98 27.069-11.98 9.508 0 18.169 3.629 24.673 9.577l-0.028-0.025 112.429 102.857 112.429-102.857c6.476-5.923 15.137-9.551 24.645-9.551 10.715 0 20.354 4.608 27.043 11.951l0.026 0.029c5.919 6.475 9.545 15.133 9.545 24.639 0 10.644-4.547 20.226-11.805 26.91l-0.026 0.023-137.143 125.429c-6.486 5.96-15.173 9.613-24.714 9.613s-18.229-3.653-24.741-9.637l0.026 0.024zM283.429 777.143c-20.198 0-36.571-16.374-36.571-36.571v0-585.143c0-20.198 16.374-36.571 36.571-36.571v0c20.198 0 36.571 16.374 36.571 36.571v0 585.143c0 20.198-16.374 36.571-36.571 36.571v0zM601.857 317.286c-10.093-0.444-19.062-4.913-25.404-11.83l-0.024-0.027c-5.919-6.475-9.545-15.133-9.545-24.639 0-10.644 4.547-20.226 11.805-26.91l0.026-0.023 137.143-125.429c6.486-5.96 15.173-9.613 24.714-9.613s18.229 3.653 24.741 9.637l-0.026-0.024 137.143 125.429c7.284 6.707 11.831 16.289 11.831 26.933 0 9.505-3.626 18.163-9.571 24.667l0.025-0.028c-6.715 7.372-16.354 11.98-27.069 11.98-9.508 0-18.169-3.629-24.673-9.577l0.028 0.025-112.429-102.857-112.429 102.857c-6.464 5.874-15.090 9.47-24.555 9.47-0.609 0-1.214-0.015-1.815-0.044l0.085 0.003zM740.571 777.143c-20.198 0-36.571-16.374-36.571-36.571v0-585.143c0-20.198 16.374-36.571 36.571-36.571v0c20.198 0 36.571 16.374 36.571 36.571v0 585.143c0 20.198-16.374 36.571-36.571 36.571v0z" />
<glyph unicode="&#xe933;" glyph-name="status-info" d="M512-15.529c-258.353 0-472 213.649-472 471.999 0 258.824 213.176 472 471.53 472 258.826 0 472.468-213.176 472.468-472 0-258.35-213.643-471.999-471.998-471.999zM512 45.646c227.762 0 411.293 183.531 411.293 410.824 0 227.765-184.001 411.294-411.763 411.294-227.294 0-410.353-183.529-410.353-411.294 0-227.293 183.059-410.824 410.823-410.824zM509.176 631.059c-28.706 0-51.764 23.059-51.764 51.294 0 29.177 23.059 52.235 51.764 52.235 29.177 0 51.765-23.059 51.765-52.235 0-28.235-22.588-51.294-51.765-51.294zM427.765 196.704c-15.059 0-26.823 11.294-26.823 26.353 0 14.589 11.765 25.883 26.823 25.883h67.765v243.766h-61.647c-15.059 0-26.823 11.294-26.823 26.353 0 14.588 11.765 25.883 26.823 25.883h90.824c18.352 0 28.235-12.706 28.235-32.001v-264h67.765c15.059 0 26.823-11.294 26.823-25.883 0-15.059-11.764-26.353-26.823-26.353h-192.942z" />
<glyph unicode="&#xe934;" glyph-name="status-info-fill" d="M512-36.155c-253.385 0-462.923 209.54-462.923 462.924 0 253.846 209.077 462.923 462.461 462.923 253.846 0 463.388-209.077 463.388-462.923 0-253.385-209.542-462.924-462.927-462.924zM509.23 600.769c29.077 0 52.154 23.077 52.154 52.154s-23.077 52.154-52.154 52.154c-29.077 0-52.154-23.077-52.154-52.154s23.077-52.154 52.154-52.154zM428 166.463h192.462c15.692 0 27.231 11.076 27.231 26.307 0 14.769-11.539 26.769-27.231 26.769h-66.923v263.077c0 19.385-10.153 32.77-29.077 32.77h-90.461c-15.231 0-27.231-12-27.231-26.308 0-15.692 12-26.769 27.231-26.769h60.922v-242.769h-66.923c-15.692 0-27.231-12-27.231-26.769 0-15.231 11.539-26.307 27.231-26.307z" />
<glyph unicode="&#xe935;" glyph-name="details-location" d="M512-64c0 0-384 372.364-384 651.636 0 205.651 171.923 372.364 384 372.364s384-166.713 384-372.364c0-279.272-384-651.636-384-651.636zM512 448c94.257 0 170.667 76.41 170.667 170.667s-76.41 170.667-170.667 170.667c-94.257 0-170.667-76.41-170.667-170.667s76.41-170.667 170.667-170.667z" />
<glyph unicode="&#xe936;" glyph-name="arrow-sort-up" d="M496.429 767.571l-137.143-125.429c-7.284-6.707-11.831-16.289-11.831-26.933 0-9.505 3.626-18.163 9.571-24.667l-0.025 0.028c6.715-7.372 16.354-11.98 27.069-11.98 9.508 0 18.169 3.629 24.673 9.577l-0.028-0.025 112.429 102.857 112.429-102.857c6.476-5.923 15.137-9.551 24.645-9.551 10.715 0 20.354 4.608 27.043 11.951l0.026 0.029c5.919 6.475 9.545 15.133 9.545 24.639 0 10.644-4.547 20.226-11.805 26.91l-0.026 0.023-137.143 125.429c-6.486 5.96-15.173 9.613-24.714 9.613s-18.229-3.653-24.741-9.637l0.026 0.024zM521.143 777.143c-20.198 0-36.571-16.374-36.571-36.571v0-585.143c0-20.198 16.374-36.571 36.571-36.571v0c20.198 0 36.571 16.374 36.571 36.571v0 585.143c0 20.198-16.374 36.571-36.571 36.571v0z" />
<glyph unicode="&#xe937;" glyph-name="arrow-back-outline-2" d="M491.267 1.734c-259.934 0-476 216.064-476 476 0 260.4 215.6 476 475.533 476 260.4 0 476.464-215.6 476.464-476 0-259.936-215.6-476-475.997-476zM244.4 478.2c0-10.733 4.667-19.133 13.533-28l162.4-162.867c6.533-6.533 14.933-10.266 25.2-10.266 20.066 0 35 15.4 35 35.466 0 10.267-4.2 19.134-10.733 25.667l-59.733 59.267-58.334 48.533 102.2-3.733h249.664c21.47 0 36.4 14.933 36.4 35.933 0 21.467-15.394 36.4-36.4 36.4h-249.664l-101.733-4.2 57.867 48.534 59.733 59.266c6.066 7 10.733 15.867 10.733 26.134 0 20.066-14.933 35-35 35-10.267 0-18.667-3.267-25.2-9.8l-162.4-163.333c-9.8-9.8-13.533-17.267-13.533-28z" />
<glyph unicode="&#xe938;" glyph-name="arrow-double-left" d="M479.083 640.417c-5.326 4.997-12.512 8.067-20.415 8.067-8.567 0-16.291-3.607-21.738-9.385l-0.014-0.015-160.083-170.667c-4.997-5.326-8.067-12.513-8.067-20.417s3.070-15.090 8.082-20.433l160.068-170.651c5.46-5.793 13.185-9.4 21.752-9.4 7.903 0 15.089 3.070 20.431 8.082l-0.016-0.015c5.819 5.463 9.444 13.205 9.444 21.793 0 7.883-3.054 15.053-8.044 20.391l0.016-0.017-140.917 150.25 140.917 150.25c4.974 5.321 8.028 12.49 8.028 20.373 0 8.588-3.625 16.33-9.428 21.778l-0.016 0.015zM724.333 648.5c-8.201-0.293-15.518-3.849-20.735-9.401l-160.098-170.683c-4.997-5.326-8.067-12.513-8.067-20.417s3.070-15.090 8.082-20.433l160.068-170.651c5.46-5.793 13.185-9.4 21.752-9.4 7.903 0 15.089 3.070 20.431 8.082l-0.016-0.015c5.793 5.46 9.4 13.185 9.4 21.752 0 7.903-3.070 15.089-8.082 20.431l-140.818 150.234 140.833 150.25c4.997 5.326 8.067 12.512 8.067 20.415 0 8.567-3.607 16.291-9.385 21.738l-0.015 0.014c-5.33 5.016-12.53 8.099-20.45 8.099-0.34 0-0.679-0.006-1.016-0.017l0.049 0.001z" />
<glyph unicode="&#xe939;" glyph-name="arrow-right" d="M292.571 960c-20.197-0.003-38.48-8.192-51.714-21.429v0c-13.233-13.236-21.418-31.519-21.418-51.714s8.185-38.479 21.418-51.714l387.143-387.143-387.143-387.143c-13.233-13.236-21.418-31.519-21.418-51.714s8.185-38.479 21.418-51.714v0c13.236-13.233 31.519-21.418 51.714-21.418s38.479 8.185 51.714 21.418l428.571 428.571c33.667 33.667 33.667 90.333 0 124l-428.571 428.571c-13.234 13.237-31.518 21.425-51.714 21.429h-0.001z" />
<glyph unicode="&#xe93a;" glyph-name="arrow-double-right" d="M544.917 640.417c-5.819-5.463-9.444-13.205-9.444-21.793 0-7.883 3.054-15.053 8.044-20.391l-0.016 0.017 140.917-150.25-140.917-150.25c-4.974-5.321-8.028-12.49-8.028-20.373 0-8.588 3.625-16.33 9.428-21.778l0.016-0.015c5.326-4.997 12.512-8.067 20.415-8.067 8.567 0 16.291 3.607 21.738 9.385l0.014 0.015 160 170.667c4.997 5.326 8.067 12.513 8.067 20.417s-3.070 15.090-8.082 20.433l-159.985 170.651c-5.46 5.793-13.185 9.4-21.752 9.4-7.903 0-15.089-3.070-20.431-8.082l0.016 0.015zM278.25 640.417c-5.793-5.46-9.4-13.185-9.4-21.752 0-7.903 3.070-15.089 8.082-20.431l140.818-150.234-140.833-150.25c-4.997-5.326-8.067-12.512-8.067-20.415 0-8.567 3.607-16.291 9.385-21.738l0.015-0.014c5.326-4.997 12.512-8.067 20.415-8.067 8.567 0 16.291 3.607 21.738 9.385l0.014 0.015 160.083 170.667c4.997 5.326 8.067 12.513 8.067 20.417s-3.070 15.090-8.082 20.433l-160.068 170.651c-5.46 5.793-13.185 9.4-21.752 9.4-7.903 0-15.089-3.070-20.431-8.082l0.016 0.015z" />
<glyph unicode="&#xe93b;" glyph-name="arrow-left" d="M602.308 712.154l-230.769-230.769c-18.124-18.124-18.124-48.645 0-66.769l230.769-230.769c7.127-7.125 16.972-11.533 27.846-11.533s20.719 4.407 27.846 11.533v0c7.125 7.127 11.533 16.972 11.533 27.846s-4.407 20.719-11.533 27.846l-208.462 208.462 208.462 208.462c7.125 7.127 11.533 16.972 11.533 27.846s-4.407 20.719-11.533 27.846v0c-7.127 7.125-16.972 11.533-27.846 11.533s-20.719-4.407-27.846-11.533v0z" />
<glyph unicode="&#xe93c;" glyph-name="contact-message" d="M568.889 163.555h284.447c94.259 0 170.664 76.403 170.664 170.667v455.112c0 94.264-76.405 170.666-170.664 170.666h-682.669c-94.264 0-170.666-76.402-170.666-170.666v-455.112c0-94.264 76.402-170.667 170.666-170.667h113.778v-227.555l284.445 227.555z" />
<glyph unicode="&#xe93d;" glyph-name="status-warning" horiz-adv-x="1205" d="M192.294-61.591c-90 0-144.529 62.47-144.529 143.474 0 24.883 6.353 50.29 20.647 74.114l410.823 715.768c27 48.176 74.647 72.529 123.353 72.529s95.822-24.353 123.356-72.529l410.823-715.768c13.234-23.293 20.643-49.23 20.643-74.114 0-81.004-54.525-143.474-144.529-143.474h-820.587zM603.118 292.057c25.943 0 41.291 15.354 41.821 43.942l7.945 287.472c0.53 28.059-21.709 48.706-50.296 48.706-29.647 0-50.293-20.117-49.765-48.176l6.882-288.002c0.529-28.058 15.882-43.942 43.412-43.942zM603.118 114.706c31.232 0 58.766 24.883 58.766 56.645 0 32.298-27.003 57.175-58.766 57.175-32.295 0-59.294-25.407-59.294-57.175 0-31.232 27.529-56.645 59.294-56.645z" />
<glyph unicode="&#xe93e;" glyph-name="contact-messenger" d="M513.625 526.875c-35.3 0-70.539-13.414-97.25-40.125-53.422-53.421-53.424-141.206 0-194.625 6.946-6.932 16.535-11.219 27.125-11.219s20.179 4.287 27.126 11.22l-0.001-0.001c6.97 6.952 11.282 16.566 11.282 27.188s-4.312 20.235-11.281 27.187l-0.001 0.001c-24.066 24.064-24.068 61.933 0 86s62.058 24.068 86.125 0c24.068-24.067 24.066-61.936 0-86-6.97-6.952-11.282-16.566-11.282-27.188s4.312-20.235 11.281-27.187l0.001-0.001c6.946-6.932 16.535-11.219 27.125-11.219s20.179 4.287 27.126 11.22l-0.001-0.001c53.424 53.419 53.422 141.204 0 194.625-26.711 26.711-62.075 40.125-97.375 40.125zM513.625 672c-72.447 0-144.819-27.569-199.875-82.625-110.113-110.112-110.112-289.76 0-399.875 6.946-6.932 16.535-11.219 27.125-11.219s20.179 4.287 27.126 11.22l-0.001-0.001c6.932 6.946 11.219 16.535 11.219 27.125s-4.287 20.179-11.22 27.126l0.001-0.001c-80.77 80.772-80.769 210.607 0 291.375s210.608 80.768 291.375 0c80.771-80.768 80.772-210.603 0-291.375-6.932-6.946-11.219-16.535-11.219-27.125s4.287-20.179 11.22-27.126l-0.001 0.001c6.946-6.932 16.535-11.219 27.125-11.219s20.179 4.287 27.126 11.22l-0.001-0.001c110.114 110.115 110.115 289.763 0 399.875-55.055 55.057-127.553 82.625-200 82.625zM513.625 827.5c-112.247 0-224.449-42.699-309.875-128.125-170.851-170.851-170.851-449.024 0-619.875 6.952-6.97 16.566-11.282 27.187-11.282s20.235 4.312 27.187 11.281l0.001 0.001c6.97 6.952 11.282 16.566 11.282 27.188s-4.312 20.235-11.281 27.187l-0.001 0.001c-141.506 141.507-141.506 369.618 0 511.125s369.618 141.507 511.125 0c141.507-141.507 141.507-369.618 0-511.125-6.97-6.952-11.282-16.566-11.282-27.188s4.312-20.235 11.281-27.187l0.001-0.001c6.952-6.97 16.566-11.282 27.188-11.282s20.235 4.312 27.187 11.281l0.001 0.001c170.851 170.851 170.851 449.024 0 619.875-85.426 85.426-197.753 128.125-310 128.125z" />
<glyph unicode="&#xe93f;" glyph-name="action-activity-fill" d="M300.698 923.429h422.603c145.877 0 264.127-118.254 264.127-264.127v-422.603c0-145.877-118.25-264.127-264.127-264.127h-422.603c-145.873 0-264.127 118.25-264.127 264.127v422.603c0 145.873 118.254 264.127 264.127 264.127zM750.204 500.353c14.855 14.858 14.841 38.94-0.015 53.789s-38.941 14.84-53.789-0.018l-136.33-136.42-132.632 88.362c-15.084 10.050-35.165 8.058-47.982-4.759l-105.651-105.65c-14.853-14.853-14.853-38.935 0-53.789s38.935-14.854 53.789 0l83.61 83.61 132.64-88.368c15.089-10.053 35.175-8.057 47.991 4.767l158.367 158.476z" />
<glyph unicode="&#xe940;" glyph-name="arrow-both-side-outline" d="M227.556 960c-125.574 0-227.556-101.982-227.556-227.556v-568.889c0-125.574 101.982-227.556 227.556-227.556h568.889c125.574 0 227.556 101.982 227.556 227.556v568.889c0 125.574-101.982 227.556-227.556 227.556zM227.556 903.111h568.889c95.041 0 170.667-75.625 170.667-170.667v-568.889c0-95.041-75.625-170.667-170.667-170.667h-568.889c-95.041 0-170.667 75.625-170.667 170.667v568.889c0 95.041 75.625 170.667 170.667 170.667zM625.778 689.667c-0.007 0-0.014 0-0.022 0-20.422 0-36.978-16.556-36.978-36.978 0-0.008 0-0.016 0-0.023v0.001-395.444c0-17.584 12.204-33.686 26.778-39.556s34.481-2.673 46.667 10l132.444 137.778c6.377 6.634 10.304 15.663 10.304 25.61 0 10.444-4.33 19.878-11.293 26.602l-0.011 0.010c-6.64 6.41-15.693 10.36-25.668 10.36-10.472 0-19.927-4.353-26.654-11.348l-0.011-0.012-78.556-81.667v317.667c0 0.007 0 0.014 0 0.022 0 20.422-16.556 36.978-36.978 36.978-0.008 0-0.016 0-0.023 0h0.001zM408.444 678.333c-14.582 5.869-34.488 2.674-46.667-10l-132.444-137.889c-6.377-6.634-10.304-15.663-10.304-25.61 0-10.444 4.33-19.878 11.293-26.602l0.011-0.010c6.64-6.41 15.693-10.36 25.668-10.36 10.472 0 19.926 4.353 26.654 11.347l0.012 0.012 78.556 81.778 0.111-317.889c0.050-20.353 16.536-36.839 36.884-36.889h0.005c0.007 0 0.014 0 0.022 0 20.391 0 36.927 16.505 36.978 36.884v395.672c0 17.577-12.196 33.686-26.778 39.556z" />
<glyph unicode="&#xe941;" glyph-name="details-barcode" horiz-adv-x="1088" d="M672.875 821.375c-17.673 0-32-14.327-32-32v0c0-17.673 14.327-32 32-32v0h148.5c29.87 0 53.25-23.505 53.25-53.375v-148.375c0-17.673 14.327-32 32-32v0c17.673 0 32 14.327 32 32v0 148.375c0 64.424-52.823 117.375-117.25 117.375zM266.625 821.375c-64.426 0-117.25-52.949-117.25-117.375v-148.375c0-17.673 14.327-32 32-32v0c17.673 0 32 14.327 32 32v0 148.375c0 29.868 23.382 53.375 53.25 53.375h148.375c17.673 0 32 14.327 32 32v0c0 17.673-14.327 32-32 32v0zM181.375 372.375c-17.673 0-32-14.327-32-32v0-148.375c0-64.427 52.826-117.375 117.25-117.375h148.375c17.673 0 32 14.327 32 32v0c0 17.673-14.327 32-32 32v0h-148.375c-29.87 0-53.25 23.504-53.25 53.375v148.375c0 17.673-14.327 32-32 32v0zM906.625 372.375c-17.673 0-32-14.327-32-32v0-148.375c0-29.872-23.378-53.375-53.25-53.375h-148.5c-17.673 0-32-14.327-32-32v0c0-17.673 14.327-32 32-32v0h148.5c64.425 0 117.25 52.95 117.25 117.375v148.375c0 17.673-14.327 32-32 32v0zM630.627 310.624c12.496-12.499 12.496-32.755 0-45.254s-32.758-12.499-45.254 0c-12.497 12.499-12.497 32.755 0 45.254 12.497 12.497 32.758 12.497 45.254 0zM502.627 310.624c12.497-12.499 12.497-32.755 0-45.254s-32.758-12.499-45.254 0c-12.497 12.499-12.497 32.755 0 45.254 12.497 12.497 32.758 12.497 45.254 0zM736 650.625c-17.673 0-32-14.327-32-32v0-341.25c0-17.673 14.327-32 32-32v0c17.673 0 32 14.327 32 32v0 341.25c0 17.673-14.327 32-32 32v0zM352 650.625c-17.673 0-32-14.327-32-32v0-341.25c0-17.673 14.327-32 32-32v0c17.673 0 32 14.327 32 32v0 341.25c0 17.673-14.327 32-32 32v0zM608 650.625c-17.673 0-32-14.327-32-32v0-213.25c0-17.673 14.327-32 32-32v0c17.673 0 32 14.327 32 32v0 213.25c0 17.673-14.327 32-32 32v0zM480 650.625c-17.673 0-32-14.327-32-32v0-213.25c0-17.673 14.327-32 32-32v0c17.673 0 32 14.327 32 32v0 213.25c0 17.673-14.327 32-32 32v0z" />
<glyph unicode="&#xe942;" d="M1024 960h-1024v-1024h1023.949v1024h0.051z" />
<glyph unicode="&#xe943;" d="M682.25 881.888v-47.719h102.886v-189.986h57.656v189.986h102.886v47.719h-263.429z" />
<glyph unicode="&#xe944;" d="M311.618 881.238l-75.245-156.332-75.245 156.332h-82.229v-236.323h57.56v169.112l73.561-142.909h52.508l73.561 142.909v-169.112h57.56v236.323h-82.031z" />
<glyph unicode="&#xe945;" d="M887.875 93.568c-1.039-8.684-5.105-16.829-11.346-23.096-6.441-5.919-14.413-9.969-23.081-11.643-12.585-2.422-25.313-3.604-38.093-3.507-13.676-0.195-27.197 1.679-40.223 5.924-10.701 3.502-19.814 10.363-26.056 19.686-6.241 9.329-9.416 22.753-9.416 39.777v24.228c0 17.126 3.174 30.597 9.416 39.921 6.241 9.329 15.355 16.189 26.056 19.692 13.025 4.142 26.547 6.118 40.223 5.919 12.826 0.2 25.61-0.937 38.093-3.502 8.566-1.679 16.492-5.724 23.081-11.643 6.241-6.267 10.255-14.31 11.346-23.045h57.656c-1.039 18.207-7.926 35.579-19.814 49.444-11.638 12.78-26.65 21.908-43.295 26.45-21.893 5.821-44.431 8.489-66.97 8.044-27.643 0-51.569-4.045-71.235-11.843-19.364-7.501-35.661-21.366-46.019-39.378-10.153-17.469-15.452-40.76-15.852-69.335v-5.376c0.302-28.575 5.699-51.866 15.852-69.335 10.358-18.012 26.655-31.974 46.019-39.378 19.666-7.849 43.592-11.843 71.235-11.843 22.636-0.445 45.179 2.217 66.97 8.044 16.748 4.439 31.754 13.665 43.295 26.45 11.74 13.865 18.724 31.237 19.814 49.444h-57.559l-0.097-0.097z" />
<glyph unicode="&#xe946;" glyph-name="action-close-outline" d="M512-54.619c-264 0-481.385 217.387-481.385 481.388 0 263.538 217.385 481.385 480.923 481.385 264 0 481.844-217.846 481.844-481.385 0-264.001-217.383-481.388-481.382-481.388zM512 51.074c208.154 0 375.69 167.541 375.69 375.695s-167.536 375.692-376.151 375.692c-208.154 0-374.769-167.538-374.769-375.692s167.077-375.695 375.231-375.695zM364.308 233.846c-25.385 0-45.231 19.846-45.231 45.231 0 12 5.077 23.077 13.846 31.385l114.924 115.384-114.924 115.846c-8.769 8.308-13.846 19.385-13.846 31.385 0 25.385 19.846 44.769 45.231 44.769 12.923 0 23.539-4.154 32.308-13.384l114.923-114.924 116.307 115.385c9.231 9.231 19.385 13.384 32.308 13.384 24.923 0 44.769-19.846 44.769-45.231 0-11.538-4.154-22.154-13.384-30.923l-115.385-116.307 114.924-114.923c8.769-8.769 13.846-19.385 13.846-31.846 0-25.385-19.846-45.231-45.231-45.231-13.384 0-24.462 4.615-32.77 13.384l-115.384 114.924-114.461-114.924c-8.769-8.769-19.847-13.384-32.77-13.384z" />
<glyph unicode="&#xe947;" glyph-name="odnoklassniki" d="M0 448c0 282.765 229.235 512 512 512s512-229.235 512-512c0-282.766-229.234-512-512-512s-512 229.234-512 512zM691.992 621.619c0.516 100.838-79.537 182.413-179.263 182.682h0.012c-99.517 0.269-180.389-80.166-180.939-179.942-0.589-98.7 80.232-180.403 178.777-180.734 99.56-0.347 180.917 79.486 181.413 177.995zM636.648 322.316c29.475 11.418 56.025 27.802 78.080 50.448h-0.039c14.387 14.781 14.525 33.343 2.84 52.378-10.201 16.652-27.967 23.666-46.99 18.763-9.791-2.509-18.251-7.475-26.147-13.505-79.785-53.658-188.967-52.157-268.43 2.446-3.904 2.69-7.962 5.222-12.237 7.219-22.055 10.394-43.251 5.557-55.897-12.544-14.759-21.146-12.877-41.689 5.798-59.609 3.896-3.761 8.22-7.105 12.536-10.441 1.016-0.784 2.032-1.571 3.042-2.359 42.65-33.343 92.468-46.939 147.697-52.712-1.406-1.508-2.635-2.848-3.749-4.068-1.981-2.162-3.619-3.954-5.337-5.671-6.483-6.502-12.965-13.005-19.448-19.511-34.016-34.131-68.038-68.269-102.152-102.305-8.409-8.361-14.426-17.727-15.027-29.94-0.858-18.113 10.355-36.124 27.981-44.646 16.602-8.062 33.613-5.518 47.911 8.59 31.846 31.397 63.5 62.96 94.641 95.039 7.81 8.027 12.032 9.791 20.89 0.551 20.437-21.386 41.433-42.264 62.432-63.137 10.153-10.098 20.311-20.196 30.405-30.354 8.078-8.141 17.18-13.938 28.853-14.746 18.432-1.268 37.211 10.508 45.58 28.416 7.668 16.368 4.762 33.843-9.165 47.947-25.246 25.529-50.613 50.94-75.981 76.347-15.726 15.754-31.456 31.508-47.155 47.289-2.052 2.044-3.738 3.883-6.227 6.609-0.969 1.059-2.064 2.253-3.348 3.643 30.236 3.623 60.774 9.062 88.643 19.866zM600.143 624.102c0.177-48.998-38.758-88.271-87.654-88.448v0.012c-49.050-0.177-88.422 38.554-88.797 87.374-0.37 49.459 39.014 89.178 88.336 89.127 48.908-0.051 87.934-39.053 88.115-88.064z" />
<glyph unicode="&#xe948;" glyph-name="details-mobiles" d="M341.333 189.111c-21.958-0.025-39.753-17.819-39.778-39.775v-0.002c0.025-21.958 17.819-39.753 39.775-39.778h170.669c21.958 0.025 39.753 17.819 39.778 39.775v0.002c-0.025 21.958-17.819 39.753-39.775 39.778h-0.002zM256 743.778c-33.178 0-64.984-13.206-88.444-36.667s-36.667-55.266-36.667-88.444v-512c0-33.178 13.204-65.093 36.667-88.556s55.269-36.556 88.444-36.556h341.333c33.175 0 65.092 13.092 88.556 36.556s36.556 55.381 36.556 88.556v512c0 33.176-13.094 64.983-36.556 88.444s-55.378 36.667-88.556 36.667zM256 664.222h341.333c12.083 0 23.679-4.79 32.222-13.333s13.333-20.135 13.333-32.222v-512c0-12.086-4.791-23.68-13.333-32.222s-20.136-13.333-32.222-13.333h-341.333c-12.088 0-23.678 4.789-32.222 13.333s-13.333 20.139-13.333 32.222v512c0 12.085 4.788 23.677 13.333 32.222s20.137 13.333 32.222 13.333zM405.333 914.444c-33.178 0-64.984-13.206-88.444-36.667s-36.667-55.266-36.667-88.444v-170.667c0-16.204 6.432-31.765 17.889-43.222s27.018-17.889 43.222-17.889h170.667c16.204 0 31.765 6.433 43.222 17.889 11.456 11.457 17.889 27.018 17.889 43.222v85.333c-0.025 21.958-17.819 39.752-39.775 39.778h-0.002c-21.958-0.025-39.752-17.819-39.778-39.775v-66.891h-133.778v152.222c0 12.085 4.788 23.677 13.333 32.222s20.137 13.333 32.222 13.333h362.667c12.083 0 23.679-4.79 32.222-13.333s13.333-20.135 13.333-32.222v-554.667c0-12.086-4.791-23.68-13.333-32.222s-20.136-13.333-32.222-13.333h-85.333c-0.020 0-0.043 0-0.067 0-21.978 0-39.797-17.804-39.822-39.775v-0.002c0.025-21.974 17.845-39.778 39.822-39.778 0.023 0 0.047 0 0.070 0h85.329c33.175 0 65.092 13.092 88.556 36.556s36.556 55.381 36.556 88.556v554.667c0 33.176-13.094 64.983-36.556 88.444s-55.378 36.667-88.556 36.667z" />
<glyph unicode="&#xe949;" d="M245.5 820.25c-32.553 0-65.135-12.26-89.75-36.875l-28.875-28.875c-42.071-42.071-59.307-102.644-48.25-161.25 23.576-124.702 94.673-257.296 208-370.625 113.326-113.321 245.921-184.427 370.625-208 58.61-11.060 119.182 6.182 161.25 48.25l28.875 28.75c49.235 49.226 49.231 130.269 0 179.5l-52 51.875c-40.601 40.602-107.552 40.634-148.125 0l-37.125-37.125c-53.161 23.984-106.184 59.243-153.625 106.625-47.456 47.456-82.545 100.446-106.5 153.625l33.25 33.375c42.491 42.492 44.462 111.288 3.875 151.875l-52 52c-24.615 24.615-57.072 36.875-89.625 36.875zM210 729c19.886 19.886 50.989 19.886 70.875 0l51.875-51.875c11.272-11.272 13.14-26.36-3.75-43.25l-36.25-36.25c-20.322-20.322-27.441-51.687-15.375-79.25 27.91-63.297 69.669-125.169 124.75-180.25 55.077-55.030 116.962-96.799 180.25-124.75 27.647-12.195 58.968-4.917 79.25 15.375l40 40c11.203 11.22 28.248 11.252 39.5 0l51.875-52c19.889-19.889 19.885-50.869 0-70.75l-28.75-28.875c-23.507-23.507-57.549-33.642-92.75-27-106.537 20.139-227.099 83.479-330.5 186.875-103.4 103.403-166.733 223.961-186.875 330.5-6.641 35.2 3.495 69.245 27 92.75z" />
<glyph unicode="&#xe94a;" d="M644.75 884.625c-21.188-0.014-38.361-17.187-38.375-38.374v-0.001c0.014-21.188 17.187-38.361 38.374-38.375h227.126v-227.125c0.014-21.188 17.187-38.361 38.374-38.375h0.001c21.188 0.014 38.361 17.187 38.375 38.374v265.501c-0.016 21.187-17.188 38.359-38.373 38.375h-0.002z" />
<glyph unicode="&#xe94b;" d="M883.125 873.375l-265.5-265.5c-6.932-6.946-11.219-16.535-11.219-27.125s4.287-20.179 11.22-27.126l-0.001 0.001c6.946-6.932 16.535-11.219 27.125-11.219s20.179 4.287 27.126 11.22l265.499 265.499c6.932 6.946 11.219 16.535 11.219 27.125s-4.287 20.179-11.22 27.126l0.001-0.001c-6.946 6.932-16.535 11.219-27.125 11.219s-20.179-4.287-27.126-11.22l0.001 0.001z" />
<glyph unicode="&#xe94c;" glyph-name="status-success" d="M254.242 91.698c-75.94 0-111.151 35.21-111.151 111.151v91.636c0 8.909-2.121 14.848-8.485 21.637l-64.909 65.334c-53.454 53.453-53.879 103.089 0 156.545l64.909 65.334c6.364 6.361 8.485 12.726 8.485 21.212v92.059c0 76.364 35.212 111.151 111.151 111.151h92.062c8.484 0 14.848 2.121 21.212 8.485l65.331 64.909c53.456 53.454 103.092 53.879 156.545 0l65.334-64.909c6.789-6.364 12.729-8.485 21.637-8.485h91.636c76.362 0 111.151-35.636 111.151-111.151v-92.059c0-8.487 2.548-14.851 8.909-21.212l64.909-65.334c53.456-53.456 53.881-103.092 0-156.545l-64.909-65.334c-6.361-6.789-8.909-12.729-8.909-21.637v-91.636c0-76.362-35.21-111.151-111.151-111.151h-91.636c-8.909 0-14.848-2.548-21.637-8.909l-65.334-64.909c-53.453-53.456-103.089-53.881-156.545 0l-65.331 64.909c-6.364 6.361-12.729 8.909-21.212 8.909h-92.062zM463.819 252.484c14.423 0 26.726 6.789 35.635 20.365l199.395 314.362c5.089 8.487 10.606 18.243 10.606 28.002 0 19.515-17.396 32.24-35.638 32.24-11.453 0-22.485-6.361-30.543-19.515l-181.152-291.030-86.122 111.154c-10.606 13.998-19.94 18.24-31.818 18.24-19.515 0-34.364-15.695-34.364-35.21 0-9.334 3.818-19.093 10.182-27.577l106.484-130.666c11.031-14.848 22.91-20.365 37.336-20.365z" />
<glyph unicode="&#xe94d;" glyph-name="document-personal" d="M362.7 670.5c-32.495 0-64.985-12.285-89.6-36.9-49.23-49.23-49.23-129.97 0-179.2 49.229-49.233 129.971-49.233 179.2 0 49.23 49.23 49.23 129.97 0 179.2-24.615 24.615-57.105 36.9-89.6 36.9zM362.7 609.5c16.642 0 33.225-6.425 46.1-19.3 25.751-25.751 25.751-66.649 0-92.4-25.751-25.753-66.549-25.753-92.3 0-25.751 25.751-25.751 66.649 0 92.4 12.875 12.875 29.558 19.3 46.2 19.3zM172.4 841.4c-64.695 0-117.8-53.105-117.8-117.8v-552.9c0-63.733 52.366-116.1 116.1-116.1h682.6c63.736 0 116.1 52.367 116.1 116.1v554.6c0 63.734-52.363 116.1-116.1 116.1zM172.4 779.9h680.9c30.563 0 54.7-24.041 54.7-54.6v-554.6c0-30.557-24.136-54.6-54.7-54.6h-682.6c-30.559 0-54.6 24.043-54.6 54.6v552.9c0 31.476 24.824 56.3 56.3 56.3zM640 585.4c-16.951-0.011-30.689-13.749-30.7-30.699v-0.001c0-0.024 0-0.052 0-0.080 0-16.959 13.742-30.709 30.699-30.72h170.701c16.958 0.011 30.7 13.761 30.7 30.72 0 0.028 0 0.056 0 0.084v-0.004c-0.011 16.951-13.749 30.689-30.699 30.7h-0.001zM640 414.7c-16.951-0.011-30.689-13.749-30.7-30.699v-0.001c0.011-16.951 13.749-30.689 30.699-30.7h102.401c16.951 0.011 30.689 13.749 30.7 30.699v0.001c-0.011 16.951-13.749 30.689-30.699 30.7h-0.001zM335.1 372.1c-41.866 0-82.189-15.841-112.9-44.3-18.175-16.813-32.25-37.449-41.4-60.4-1.384-3.372-2.188-7.285-2.188-11.386 0-12.848 7.887-23.853 19.083-28.439l0.205-0.074c3.372-1.384 7.285-2.188 11.386-2.188 12.848 0 23.853 7.887 28.439 19.083l0.074 0.205c5.783 14.507 14.664 27.521 26.1 38.1 0.015 0 0.032 0 0.050 0s0.035 0 0.053 0h-0.003c19.379 17.959 44.699 27.9 71.1 27.9h55.1c26.401 0 51.821-9.941 71.2-27.9 11.436-10.579 20.317-23.593 26.1-38.1 4.66-11.401 15.666-19.288 28.514-19.288 4.101 0 8.015 0.804 11.592 2.262l-0.205-0.074c11.447 4.639 19.374 15.668 19.374 28.548 0 4.088-0.799 7.99-2.248 11.558l0.074-0.206c-9.149 22.951-23.325 43.587-41.5 60.4-30.711 28.459-71.034 44.3-112.9 44.3z" />
</font>
</defs>
</svg>
